aoloffline
版主

[2017] [欧美] [科幻] [WEB-1080P] [BT下载]缺陷 Defective.2017.1080p.WEB-DL.DD5.1.H264-FGT 3.8GB

-->

Defective.2017.1080p.WEB-DL.DD5.1.H264-FGT

◎译  名 缺陷

◎片  名 Defective

◎年  代 2017

◎产  地 加拿大

◎类  别 科幻/动作/惊悚

◎语  言 英语

◎IMDb评分  6.8/10 from 19 users

◎IMDb链接  http://www.imdb.com/title/tt4526372/

◎BT之家整理 http://www.btbtt.co 

◎片  长 45分钟

◎导  演 Reese Eveneshen

◎主  演 Colin Paradine ... Rhett Murphy

      Raven Cousens ... Jean Harlan

      Ashley Armstrong ... Ora Green


◎简  介


  Set in the near future where Rhett Murphy and his estranged sister Jean are forced to flee from a militant police state after witnessing the dark secrets of anefarious corporation.



Video
ID                                       : 1
Format                                   : AVC
Format/Info                              : Advanced Video Codec
Format profile                           : High@L4
Format settings                          : CABAC / 4 Ref Frames
Format settings, CABAC                   : Yes
Format settings, ReFrames                : 4 frames
Codec ID                                 : V_MPEG4/ISO/AVC
Duration                                 : 1 h 42 min
Bit rate                                 : 5 005 kb/s
Width                                    : 1 920 pixels
Height                                   : 1 032 pixels
Display aspect ratio                     : 1.85:1
Frame rate mode                          : Constant
Frame rate                               : 23.976 (24000/1001) FPS
Color space                              : YUV
Chroma subsampling                       : 4:2:0
Bit depth                                : 8 bits
Scan type                                : Progressive
Bits/(Pixel*Frame)                       : 0.105
Stream size                              : 3.57 GiB (93%)
Title                                    : Defective.2017.1080p.WEB-DL.DD5.1.H264-FGT
Language                                 : English
Default                                  : Yes
Forced                                   : No
Color range                              : Limited
Color primaries                          : BT.709
Transfer characteristics                 : BT.709
Matrix coefficients                      : BT.709

Audio
ID                                       : 2
Format                                   : AC-3
Format/Info                              : Audio Coding 3
Codec ID                                 : A_AC3
Duration                                 : 1 h 42 min
Bit rate mode                            : Constant
Bit rate                                 : 384 kb/s
Channel(s)                               : 6 channels
Channel positions                        : Front: L C R, Side: L R, LFE
Sampling rate                            : 48.0 kHz
Frame rate                               : 31.250 FPS (1536 SPF)
Bit depth                                : 16 bits
Compression mode                         : Lossy
Delay relative to video                  : -42 ms
Stream size                              : 280 MiB (7%)
Title                                    : Defective.2017.1080p.WEB-DL.DD5.1.H264-FGT
Language                                 : English
Service kind                             : Complete Main
Default                                  : Yes
Forced                                   : No

Menu
00:00:00.000                             : en:1
00:10:45.687                             : en:2
00:18:43.164                             : en:3
00:29:07.580                             : en:4
00:39:53.267                             : en:5
00:52:36.613                             : en:6
01:05:41.648                             : en:7
01:19:33.730                             : en:8
01:27:04.180                             : en:9
01:38:16.393                             : en:10




1 个附件 售价 大小 下载 时间

Defective.2017.1080p.WEB-DL.DD5.1.H264-FGT[btbtt.me].torrent 0 金币 77.34K 704 次 3月前

#1楼
发帖时间:2018-02-13 17:30:52   |   回复数:3
liyouchai
超凡入圣№
谢谢楼主分享资源
3月前 #2楼
blue23
隐世仙人♂
感谢楼主分享
3月前 #3楼
911degrees
超凡入圣№
非常感谢,谢谢分享
3月前 #4楼
游客组