aoloffline
版主

[2017] [欧美] [恐怖] [WEB-1080P] [BT下载]刑房的噩梦 Grindhouse.Nightmares.2017.1080p.WEB-DL.AAC2.0.H264-FGT 2.42GB

-->

Grindhouse.Nightmares.2017.1080p.WEB-DL.AAC2.0.H264-FGT

◎译  名 刑房的噩梦

◎片  名 Grindhouse.Nightmares

◎年  代 2017

◎产  地 美国

◎类  别 恐怖

◎语  言 英语

◎IMDb评分  N/A

◎IMDb链接  http://www.imdb.com/title/tt7520216/

◎BT之家整理 http://www.btbtt.co 

◎片  长 1h 15min

◎导  演 Richard Driscoll

◎主  演 Patrick Bergin

      Michael Madsen

      Steve Munroe ... Sam Coex


◎简  介


  Welcome to the Grindhouse experience like it was meant to be| killer story lines and themes zig zig across the screen in Grind-O-Vision| a nonstop thrill ride ofbabes| guns| muscle cars| motorcycle shoot outs| rendezvous with the devil and much more. From "Manhunt" to "Stripper with a Shotgun|" Grindhouse Nightmares iscinema exploitation at its best. Featuring Michael Madsen and the Queen of the Scream Queens| Linnea Quigley.


Video
ID                                       : 1
Format                                   : AVC
Format/Info                              : Advanced Video Codec
Format profile                           : High@L4
Format settings                          : CABAC / 5 Ref Frames
Format settings, CABAC                   : Yes
Format settings, ReFrames                : 5 frames
Codec ID                                 : V_MPEG4/ISO/AVC
Duration                                 : 1 h 13 min
Bit rate                                 : 4 579 kb/s
Width                                    : 1 892 pixels
Height                                   : 792 pixels
Display aspect ratio                     : 2.40:1
Frame rate mode                          : Constant
Frame rate                               : 23.976 (23976/1000) FPS
Color space                              : YUV
Chroma subsampling                       : 4:2:0
Bit depth                                : 8 bits
Scan type                                : Progressive
Bits/(Pixel*Frame)                       : 0.127
Stream size                              : 2.36 GiB (98%)
Title                                    : Grindhouse.Nightmares.2017.1080p.WEB-DL.AAC2.0.H264-FGT
Language                                 : English
Default                                  : Yes
Forced                                   : No
Color range                              : Limited
Color primaries                          : BT.709
Transfer characteristics                 : BT.709
Matrix coefficients                      : BT.709

Audio
ID                                       : 2
Format                                   : AAC
Format/Info                              : Advanced Audio Codec
Format profile                           : LC
Codec ID                                 : A_AAC-2
Duration                                 : 1 h 13 min
Bit rate                                 : 104 kb/s
Channel(s)                               : 2 channels
Channel positions                        : Front: L R
Sampling rate                            : 48.0 kHz
Frame rate                               : 46.875 FPS (1024 SPF)
Compression mode                         : Lossy
Delay relative to video                  : -42 ms
Stream size                              : 54.7 MiB (2%)
Title                                    : Grindhouse.Nightmares.2017.1080p.WEB-DL.AAC2.0.H264-FGT
Language                                 : English
Default                                  : Yes
Forced                                   : No

Menu
00:00:00.000                             : en:Chapter 1
00:10:00.600                             : en:Chapter 2
00:20:01.200                             : en:Chapter 3
00:30:01.800                             : en:Chapter 4
00:40:02.400                             : en:Chapter 5
00:50:03.000                             : en:Chapter 6
01:00:03.600                             : en:Chapter 7
01:10:04.200                             : en:Chapter 8





1 个附件 售价 大小 下载 时间

Grindhouse.Nightmares.2017.1080p.WEB-DL.AAC2.0.H264-FGT[btbtt.me].torrent 0 金币 48.89K 1092 次 7天前

#1楼
发帖时间:2018-02-13 17:56:10   |   回复数:3
linyihuangwei
武林盟主
谢谢分享
7天前 #2楼
liyouchai
超凡入圣№
谢谢楼主分享资源
7天前 #3楼
blue23
隐世仙人♂
感谢楼主分享
6天前 #4楼
游客组