kfen
江湖小虾

[2017] [欧美] [科幻] [WEB-1080P] [BT下载]正义联盟 Justice.League.2017.1080p.AMZN.WEBRip.DDP5.1.x264-NTG 9.81G

-->

◎译  名 正义联盟/TheJusticeLeaguePartOne

◎片  名 Justice League

◎年  代 2017

◎产  地 美国

◎类  别 动作/科幻/奇幻/冒险

◎语  言 英语/冰岛语/俄语

◎上映日期 2017-11-17(美国)/2017-11-17(中国大陆)

◎豆瓣评分 6.6/10 from 127,909 users

◎豆瓣链接 https://movie.douban.com/subject/2158490/

◎BT之家整理 http://www.btbtt.co/

◎片  长 120分钟

◎导  演 扎克·施奈德 Zack Snyder

◎主  演 本·阿弗莱克 Ben Affleck

      亨利·卡维尔 Henry Cavill

      盖尔·加朵 Gal Gadot

      埃兹拉·米勒 Ezra Miller

      杰森·莫玛 Jason Momoa

      雷·费舍尔 Ray Fisher

      杰瑞米·艾恩斯 Jeremy Irons

      艾米·亚当斯 Amy Adams

      戴安·琳恩 Diane Lane

      康妮·尼尔森 Connie Nielsen

      J·K·西蒙斯 J.K. Simmons

      塞伦·希德 Ciarán Hinds

      艾梅柏·希尔德 Amber Heard

      乔·莫顿 Joe Morton

      丽莎·洛文·孔斯利 Lisa Loven Kongsli

      大卫·休里斯 David Thewlis

      迈克尔·麦克埃尔哈顿 Michael McElhatton

      理查德·克里弗特 Richard Clifford

      Ingvar Eggert Sigurðsson

      比利·克鲁德普 Billy Crudup

      赛吉·康斯坦斯 Sergi Constance

      乔·曼根尼罗 Joe Manganiello

      杰西·艾森伯格 Jesse Eisenberg


◎简  介


   受到超人无私奉献的影响,蝙蝠侠重燃了对人类的信心,接受了新盟友——神奇女侠(戴安娜·普林斯)的帮助,去对抗更加强大的敌人。蝙蝠侠和神奇女侠一同 寻找并招募了一支超人类联盟来抵挡新觉醒的威胁。但尽管这支队伍集结了超人、蝙蝠侠、神奇女侠、闪电侠、海王和钢骨等人,他们似乎无法阻止敌人对地球的进 攻……


Video
ID                                       : 1
Format                                   : AVC
Format/Info                              : Advanced Video Codec
Format profile                           : High@L4
Format settings                          : CABAC / 4 Ref Frames
Format settings, CABAC                   : Yes
Format settings, ReFrames                : 4 frames
Codec ID                                 : V_MPEG4/ISO/AVC
Duration                                 : 1 h 59 min
Bit rate mode                            : Variable
Bit rate                                 : 11.1 Mb/s
Maximum bit rate                         : 15.0 Mb/s
Width                                    : 1 920 pixels
Height                                   : 1 080 pixels
Display aspect ratio                     : 16:9
Frame rate mode                          : Constant
Frame rate                               : 23.976 (24000/1001) FPS
Color space                              : YUV
Chroma subsampling                       : 4:2:0
Bit depth                                : 8 bits
Scan type                                : Progressive
Bits/(Pixel*Frame)                       : 0.223
Stream size                              : 9.28 GiB (95%)
Default                                  : Yes
Forced                                   : No
Color range                              : Limited
Color primaries                          : BT.709
Transfer characteristics                 : BT.709
Matrix coefficients                      : BT.709

Audio
ID                                       : 2
Format                                   : E-AC-3
Format/Info                              : Enhanced Audio Coding 3
Codec ID                                 : A_EAC3
Duration                                 : 1 h 59 min
Bit rate mode                            : Constant
Bit rate                                 : 640 kb/s
Channel(s)                               : 6 channels
Channel positions                        : Front: L C R, Side: L R, LFE
Sampling rate                            : 48.0 kHz
Frame rate                               : 187.500 FPS (256 SPF)
Compression mode                         : Lossy
Stream size                              : 549 MiB (5%)
Language                                 : English
Service kind                             : Complete Main
Default                                  : Yes
Forced                                   : No

Text #1
ID                                       : 3
Format                                   : UTF-8
Codec ID                                 : S_TEXT/UTF8
Codec ID/Info                            : UTF-8 Plain Text
Duration                                 : 1 h 58 min
Bit rate                                 : 42 b/s
Count of elements                        : 1235
Stream size                              : 36.6 KiB (0%)
Language                                 : English
Default                                  : No
Forced                                   : No

Text #2
ID                                       : 4
Format                                   : UTF-8
Codec ID                                 : S_TEXT/UTF8
Codec ID/Info                            : UTF-8 Plain Text
Duration                                 : 1 h 58 min
Bit rate                                 : 47 b/s
Count of elements                        : 1490
Stream size                              : 41.0 KiB (0%)
Title                                    : SDH
Language                                 : English
Default                                  : No
Forced                                   : No




1 个附件 售价 大小 下载 时间

Justice.League.2017.1080p.AMZN.WEBRip.DDP5.1.x264-NTG-[rarbg.to].torrent 0 金币 98.69K 13728 次 3月前

#1楼
发帖时间:2018-02-13 18:12:25   |   回复数:12
121076
一派掌门
支持分享,多谢~
3月前 #2楼
tanchoohoon
武林盟主
感谢楼主的无私分享!
3月前 #3楼
liyouchai
超凡入圣№
谢谢楼主分享资源
3月前 #4楼
hzy322799
武林盟主
终于等到了,辛苦了!!
3月前 #5楼
ulix
武林高手
謝謝你的分享。
3月前 #6楼
MGCNDD
一派掌门

感谢楼主的分享!
3月前 #7楼
blue23
隐世仙人♂
感谢楼主分享
3月前 #8楼
Mr.lizs
小有名气
感谢楼主分享
3月前 #9楼
apple319
一派掌门
感谢楼主分享
3月前 #10楼
911degrees
超凡入圣№
非常感谢,谢谢分享
3月前 #11楼
chenweibin27
武林高手
感谢楼主分享!
3月前 #12楼
看电影狂魔
武林高手
非常感谢楼主!亚马逊这个很清楚的样子
3月前 #13楼
游客组