aoloffline
版主

[2014] [欧美] [喜剧] [WEB-1080P] [BT下载]一零八针 108.Stitches.2014.1080p.AMZN.WEBRip.DDP5.1.x264-QOQ 8.8GB

-->

108.Stitches.2014.1080p.AMZN.WEBRip.DDP5.1.x264-QOQ

◎译  名 一零八针/108针

◎片  名 108 Stitches

◎年  代 2014

◎产  地 美国

◎类  别 喜剧

◎语  言 英语

◎上映日期 2014-09-12(美国)

◎IMDb评分  7.3/10 from 84 users

◎IMDb链接  http://www.imdb.com/title/tt3073898/

◎BT之家整理 http://www.btbtt.co

◎片  长 108分钟

◎导  演 大卫·朗特里 David Rountree

◎主  演 布鲁斯·戴维森 Bruce Davison

      艾琳·卡希尔 Erin Cahill

      凯特·维隆 Kate Vernon

      Ryan Carlberg

      Larry Thomas

      阿伦·马尔多纳多 Allen Maldonado

      达特·樊 Dat Phan

      Josh Blue

      Roger Clemens

      Chris Moir

      Evan O'Brien


◎简  介


  片名中的“108针”指的便是每颗棒球大联盟用球上,用红线缝出的108个针脚。

  108个红色的针脚,将皮质的棒球缝在一起,它们能影响球向球棒飞行的轨迹和路线,外露的缝线增加空气摩擦力,在球的前部施加更多压力,同时,它们也是棒球运动的象征之一。

  不过影片中的棒球队着实蹩脚得可以,Blue 饰演的投手,没有一次能把球稳稳投进捕手的手套里,教练质问原因时,他说“我是有点脑瘫,除此之外都很健康。”由于学校不愿再资助这支屡败屡战的棒球队,球员们必须在一天时间内筹集五万美元,才能继续比赛,避免散伙,大家遂想出了“裸体洗车”的奇招,笑料百出……


Video
ID                                       : 1
Format                                   : AVC
Format/Info                              : Advanced Video Codec
Format profile                           : High@L4
Format settings                          : CABAC / 4 Ref Frames
Format settings, CABAC                   : Yes
Format settings, ReFrames                : 4 frames
Codec ID                                 : V_MPEG4/ISO/AVC
Duration                                 : 1 h 58 min
Bit rate mode                            : Variable
Bit rate                                 : 9 982 kb/s
Maximum bit rate                         : 15.0 Mb/s
Width                                    : 1 920 pixels
Height                                   : 1 080 pixels
Display aspect ratio                     : 16:9
Frame rate mode                          : Constant
Frame rate                               : 23.976 (24000/1001) FPS
Color space                              : YUV
Chroma subsampling                       : 4:2:0
Bit depth                                : 8 bits
Scan type                                : Progressive
Bits/(Pixel*Frame)                       : 0.201
Stream size                              : 8.27 GiB (94%)
Default                                  : Yes
Forced                                   : No
Color range                              : Limited
Color primaries                          : BT.709
Transfer characteristics                 : BT.709
Matrix coefficients                      : BT.709

Audio
ID                                       : 2
Format                                   : E-AC-3
Format/Info                              : Enhanced Audio Coding 3
Codec ID                                 : A_EAC3
Duration                                 : 1 h 58 min
Bit rate mode                            : Constant
Bit rate                                 : 640 kb/s
Channel(s)                               : 6 channels
Channel positions                        : Front: L C R, Side: L R, LFE
Sampling rate                            : 48.0 kHz
Frame rate                               : 187.500 FPS (256 SPF)
Compression mode                         : Lossy
Stream size                              : 543 MiB (6%)
Language                                 : English
Service kind                             : Complete Main
Default                                  : Yes
Forced                                   : No

Text #1
ID                                       : 3
Format                                   : UTF-8
Codec ID                                 : S_TEXT/UTF8
Codec ID/Info                            : UTF-8 Plain Text
Duration                                 : 1 h 58 min
Bit rate                                 : 74 b/s
Count of elements                        : 2262
Stream size                              : 64.8 KiB (0%)
Language                                 : English
Default                                  : No
Forced                                   : No

Text #2
ID                                       : 4
Format                                   : UTF-8
Codec ID                                 : S_TEXT/UTF8
Codec ID/Info                            : UTF-8 Plain Text
Duration                                 : 1 h 58 min
Bit rate                                 : 76 b/s
Count of elements                        : 2344
Stream size                              : 66.8 KiB (0%)
Title                                    : SDH
Language                                 : English
Default                                  : No
Forced                                   : No





1 个附件 售价 大小 下载 时间

108.Stitches.2014.1080p.AMZN.WEBRip.DDP5.1.x264-QOQ[btbtt.me].torrent 0 金币 88.55K 637 次 3月前

#1楼
发帖时间:2018-03-13 18:46:37   |   回复数:3
blue23
隐世仙人♂
感谢楼主分享
3月前 #2楼
liyouchai
超凡入圣№
谢谢楼主分享资源
3月前 #3楼
911degrees
隐世仙人♂
非常感谢,谢谢分享
3月前 #4楼
游客组