aoloffline
版主

[2017] [欧美] [喜剧] [WEB-1080P] [BT下载]天竺蓝调 Basmati.Blues.2017.1080p.WEB-DL.DD5.1.H264-FGT 3.6GB

-->

Basmati.Blues.2017.1080p.WEB-DL.DD5.1.H264-FGT

◎译  名 天竺蓝调/印度蓝调/天竺国蓝调

◎片  名 Basmati Blues

◎年  代 2017

◎产  地 美国

◎类  别 喜剧/爱情/歌舞

◎语  言 英语

◎上映日期 2017-11-06(瑞典)/2018-02-09(美国)

◎IMDb评分  3.7/10 from 341 users

◎IMDb链接  http://www.imdb.com/title/tt1131728/

◎BT之家整理 http://www.btbtt.co

◎片  长 106分钟

◎导  演 Dan Baron

◎主  演 布丽·拉尔森 Brie Larson

      唐纳德·萨瑟兰 Donald Sutherland

      斯科特·巴库拉 Scott Bakula

      泰恩·黛莉 Tyne Daly

      乌特卡什·安邦德卡尔 Utkarsh Ambudkar

      Suhasini Mulay


◎简  介


  A brilliant scientist is plucked out of the company lab and sent to India to sell the genetically modified rice she created - which she doesn't realize will destroy the farmers she thinks she's helping.


Video
ID                                       : 1
Format                                   : AVC
Format/Info                              : Advanced Video Codec
Format profile                           : High@L4
Format settings                          : CABAC / 5 Ref Frames
Format settings, CABAC                   : Yes
Format settings, ReFrames                : 5 frames
Format settings, GOP                     : N=1
Codec ID                                 : V_MPEG4/ISO/AVC
Duration                                 : 1 h 46 min
Bit rate                                 : 4 529 kb/s
Width                                    : 1 912 pixels
Height                                   : 802 pixels
Display aspect ratio                     : 2.40:1
Frame rate mode                          : Constant
Frame rate                               : 23.976 (23976/1000) FPS
Color space                              : YUV
Chroma subsampling                       : 4:2:0
Bit depth                                : 8 bits
Scan type                                : Progressive
Bits/(Pixel*Frame)                       : 0.123
Stream size                              : 3.36 GiB (92%)
Title                                    : Basmati.Blues.2017.1080p.WEB-DL.DD5.1.H.264-FGT
Language                                 : English
Default                                  : Yes
Forced                                   : No
Color range                              : Limited
Color primaries                          : BT.709
Transfer characteristics                 : BT.709
Matrix coefficients                      : BT.709

Audio
ID                                       : 2
Format                                   : AC-3
Format/Info                              : Audio Coding 3
Codec ID                                 : A_AC3
Duration                                 : 1 h 46 min
Bit rate mode                            : Constant
Bit rate                                 : 384 kb/s
Channel(s)                               : 6 channels
Channel positions                        : Front: L C R, Side: L R, LFE
Sampling rate                            : 48.0 kHz
Frame rate                               : 31.250 FPS (1536 SPF)
Bit depth                                : 16 bits
Compression mode                         : Lossy
Stream size                              : 291 MiB (8%)
Title                                    : Basmati.Blues.2017.1080p.WEB-DL.DD5.1.H.264-FGT
Language                                 : English
Service kind                             : Complete Main
Default                                  : Yes
Forced                                   : No

Text
ID                                       : 3
Format                                   : UTF-8
Codec ID                                 : S_TEXT/UTF8
Codec ID/Info                            : UTF-8 Plain Text
Duration                                 : 1 h 45 min
Bit rate                                 : 63 b/s
Count of elements                        : 1644
Stream size                              : 49.3 KiB (0%)
Language                                 : English
Default                                  : Yes
Forced                                   : No

Menu
00:00:00.000                             : en:1
00:14:48.722                             : en:2
00:25:41.624                             : en:3
00:37:00.844                             : en:4
00:46:33.416                             : en:5
01:01:39.613                             : en:6
01:11:25.073                             : en:7
01:23:15.992                             : en:8
01:36:43.507                             : en:9



1 个附件 售价 大小 下载 时间

Basmati.Blues.2017.1080p.WEB-DL.DD5.1.H264-FGT[btbtt.me].torrent 0 金币 73.39K 714 次 3月前

#1楼
发帖时间:2018-03-13 18:51:04   |   回复数:4
blue23
隐世仙人♂
感谢楼主分享
3月前 #2楼
liang3109
小有名气
多谢楼主分享。
3月前 #3楼
liyouchai
超凡入圣№
谢谢楼主分享资源
3月前 #4楼
911degrees
隐世仙人♂
非常感谢,谢谢分享
3月前 #5楼
游客组