aoloffline
版主

[2013] [欧美] [剧情] [WEB-1080P] [BT下载]候机室情缘 Something.Real.and.Good.2013.1080p.WEB-DL.DD5.1.H264-FGT 2.5GB

-->

Something.Real.and.Good.2013.1080p.WEB-DL.DD5.1.H264-FGT

◎译  名 候机室情缘

◎片  名 Something Real and Good

◎年  代 2013

◎产  地 美国

◎类  别 剧情

◎语  言 英语

◎上映日期 2013-03-05(美国)

◎IMDb评分  6.0/10 from 704 users

◎IMDb链接  http://www.imdb.com/title/tt1800379/

◎豆瓣评分 6.0/10 from 316 users

◎豆瓣链接 https://movie.douban.com/subject/21371613/

◎BT之家整理 http://www.btbtt.co

◎导  演 Luke Rivett

◎主  演 亚历克斯·汉南特 Alex Hannant

      Matt Jones

      Colton Castaneda

      Ward Edmondson

      Tommy Shayne Manfredi

      Dillaran Martin

      Craig Shippey

      Marla Stone


◎简  介


  一对年轻的男女,人在机场不期而遇。在等待航班延误因飞机改道而认识到,有时恋爱的到来是需要弯路来建立连接。


Video
ID                                       : 1
Format                                   : AVC
Format/Info                              : Advanced Video Codec
Format profile                           : High@L4
Format settings                          : CABAC / 5 Ref Frames
Format settings, CABAC                   : Yes
Format settings, ReFrames                : 5 frames
Codec ID                                 : V_MPEG4/ISO/AVC
Duration                                 : 1 h 21 min
Bit rate                                 : 4 057 kb/s
Width                                    : 1 920 pixels
Height                                   : 816 pixels
Display aspect ratio                     : 2.35:1
Frame rate mode                          : Constant
Frame rate                               : 23.976 (23976/1000) FPS
Color space                              : YUV
Chroma subsampling                       : 4:2:0
Bit depth                                : 8 bits
Scan type                                : Progressive
Bits/(Pixel*Frame)                       : 0.108
Stream size                              : 2.30 GiB (91%)
Title                                    : Something.Real.and.Good.2013.1080p.WEB-DL.DD5.1.H.264-FGT
Language                                 : English
Default                                  : Yes
Forced                                   : No
Color range                              : Limited
Color primaries                          : BT.709
Transfer characteristics                 : BT.709
Matrix coefficients                      : BT.709

Audio
ID                                       : 2
Format                                   : AC-3
Format/Info                              : Audio Coding 3
Codec ID                                 : A_AC3
Duration                                 : 1 h 21 min
Bit rate mode                            : Constant
Bit rate                                 : 384 kb/s
Channel(s)                               : 6 channels
Channel positions                        : Front: L C R, Side: L R, LFE
Sampling rate                            : 48.0 kHz
Frame rate                               : 31.250 FPS (1536 SPF)
Bit depth                                : 16 bits
Compression mode                         : Lossy
Stream size                              : 223 MiB (9%)
Title                                    : Something.Real.and.Good.2013.1080p.WEB-DL.DD5.1.H.264-FGT
Language                                 : English
Service kind                             : Complete Main
Default                                  : Yes
Forced                                   : No

Text
ID                                       : 3
Format                                   : UTF-8
Codec ID                                 : S_TEXT/UTF8
Codec ID/Info                            : UTF-8 Plain Text
Duration                                 : 1 h 21 min
Bit rate                                 : 105 b/s
Count of elements                        : 1595
Stream size                              : 63.0 KiB (0%)
Language                                 : English
Default                                  : No
Forced                                   : No

Menu
00:00:00.000                             : en:Chapter 1
00:09:45.000                             : en:Chapter 2
00:20:04.000                             : en:Chapter 3
00:31:21.000                             : en:Chapter 4
00:41:31.000                             : en:Chapter 5
00:51:10.000                             : en:Chapter 6
01:03:43.000                             : en:Chapter 7
01:11:30.000                             : en:Chapter 8
01:18:30.000                             : en:End Credits



1 个附件 售价 大小 下载 时间

Something.Real.and.Good.2013.1080p.WEB-DL.DD5.1.H264-FGT[btbtt.me].torrent 0 金币 50.96K 1071 次 6月前

#1楼
发帖时间:2018-03-13 19:04:19   |   回复数:6
tanchoohoon
武林盟主
感谢楼主的无私分享!
6月前 #2楼
blue23
隐世仙人♂
感谢楼主分享
6月前 #3楼
liang3109
武林高手
多谢楼主分享。
6月前 #4楼
liyouchai
超凡入圣№
谢谢楼主分享资源
6月前 #5楼
911degrees
隐世仙人♂
非常感谢,谢谢分享
6月前 #6楼
tanchoohoon
武林盟主
感谢楼主的无私分享!
6月前 #7楼
游客组