aoloffline
版主

[2012] [欧美] [剧情] [WEB-1080P] [BT下载]网恋血案 TalhotBlond.2012.1080p.WEB-DL.DD5.1.H264-FGT 3.1GB

-->

TalhotBlond.2012.1080p.WEB-DL.DD5.1.H264-FGT

◎译  名 网恋血案

◎片  名 TalhotBlond

◎年  代 2012

◎产  地 美国

◎类  别 剧情

◎语  言 英语

◎上映日期 2012-06-23(美国)

◎IMDb评分  6.4/10 from 1,576 users

◎IMDb链接  http://www.imdb.com/title/tt2354403/

◎豆瓣评分 6.8/10 from 21 users

◎豆瓣链接 https://movie.douban.com/subject/10735397/

◎BT之家整理 http://www.btbtt.co

◎片  长 87 min

◎导  演 柯特妮·考克斯 Courteney Cox

◎主  演 柯特妮·考克斯 Courteney Cox

      阿什丽·欣肖 Ashley Hinshaw

      Drew Seeley


◎简  介


  该片根据真实故事改编,主人公Thomas Montgomery(Garrett Dillahunt)是一个已婚的中年男人,有两个女儿,平日里工作认真、循规蹈矩。因为生活过于乏味,Thomas迷恋上了网络赌博和网上聊天。在一次扑克赌博游戏中,一个网名叫做「Talhotblond」的陌生人主动与他聊天。对方自称是一位年仅18岁的妙龄少女,Thomas决定用假身份来蒙骗她--他自称是名叫「Tommy」的年轻士兵。他们从普通聊天逐渐发展为网恋,并最终产生性迷恋。Thomas的妻子Carol(Laura San Giacomo)根据他最近的反常行为发现了他的「小秘密」。为了结束Thomas的荒唐网恋,Carol将他的实情全都告诉了那个「Talhotblond」,希望对方能主动结束这段关系。「Talhotblond」对Thomas的谎言很是气愤,她开始在网上勾引Thomas的同事Brian,引起了Thomas的强烈嫉妒。最终……引发了一起可怕的谋杀案。来自《老友记》和《熟女镇》的Courteney Cox担任该片的导演,这是她首度担任长片导演。


Video
ID                                       : 1
Format                                   : AVC
Format/Info                              : Advanced Video Codec
Format profile                           : High@L4
Format settings                          : CABAC / 4 Ref Frames
Format settings, CABAC                   : Yes
Format settings, ReFrames                : 4 frames
Codec ID                                 : V_MPEG4/ISO/AVC
Duration                                 : 1 h 28 min
Bit rate                                 : 4 737 kb/s
Width                                    : 1 920 pixels
Height                                   : 1 080 pixels
Display aspect ratio                     : 16:9
Frame rate mode                          : Constant
Frame rate                               : 23.976 (23976/1000) FPS
Color space                              : YUV
Chroma subsampling                       : 4:2:0
Bit depth                                : 8 bits
Scan type                                : Progressive
Bits/(Pixel*Frame)                       : 0.095
Stream size                              : 2.94 GiB (92%)
Title                                    : TalhotBlond.2012.1080p.WEB-DL.DD5.1.H.264-FGT
Language                                 : English
Default                                  : Yes
Forced                                   : No
Color range                              : Limited
Color primaries                          : BT.709
Transfer characteristics                 : BT.709
Matrix coefficients                      : BT.709

Audio
ID                                       : 2
Format                                   : AC-3
Format/Info                              : Audio Coding 3
Codec ID                                 : A_AC3
Duration                                 : 1 h 28 min
Bit rate mode                            : Constant
Bit rate                                 : 384 kb/s
Channel(s)                               : 6 channels
Channel positions                        : Front: L C R, Side: L R, LFE
Sampling rate                            : 48.0 kHz
Frame rate                               : 31.250 FPS (1536 SPF)
Bit depth                                : 16 bits
Compression mode                         : Lossy
Stream size                              : 244 MiB (7%)
Title                                    : TalhotBlond.2012.1080p.WEB-DL.DD5.1.H.264-FGT
Language                                 : English
Service kind                             : Complete Main
Default                                  : Yes
Forced                                   : No

Text
ID                                       : 3
Format                                   : UTF-8
Codec ID                                 : S_TEXT/UTF8
Codec ID/Info                            : UTF-8 Plain Text
Duration                                 : 1 h 28 min
Bit rate                                 : 58 b/s
Count of elements                        : 1154
Stream size                              : 38.3 KiB (0%)
Language                                 : English
Default                                  : No
Forced                                   : No

Menu
00:00:00.000                             : en:1
00:06:23.000                             : en:2
00:10:00.000                             : en:3
00:14:43.000                             : en:4
00:20:43.000                             : en:5
00:26:07.000                             : en:6
00:31:37.000                             : en:7
00:36:05.000                             : en:8
00:40:14.000                             : en:9
00:43:46.000                             : en:10
00:48:40.000                             : en:11
00:55:51.000                             : en:12
01:03:12.000                             : en:13
01:09:01.000                             : en:14
01:15:00.000                             : en:15
01:20:28.000                             : en:16



1 个附件 售价 大小 下载 时间

TalhotBlond.2012.1080p.WEB-DL.DD5.1.H264-FGT[btbtt.me].torrent 0 金币 64.18K 1239 次 9月前

#1楼
发帖时间:2018-03-13 19:05:51   |   回复数:5
tanchoohoon
武林盟主
感谢楼主的无私分享!
9月前 #2楼
blue23
隐世仙人♂
感谢楼主分享
9月前 #3楼
liang3109
武林高手
多谢楼主分享。
9月前 #4楼
liyouchai
超凡入圣№
谢谢楼主分享资源
9月前 #5楼
911degrees
隐世仙人♂
非常感谢,谢谢分享
9月前 #6楼
游客组