aoloffline
版主

[2013] [欧美] [喜剧] [WEB-1080P] [BT下载]一个真实的故事 A.True.Story.2013.1080p.AMZN.WEBRip.DD2.0.x264-QOQ 3.4GB

-->

A.True.Story.2013.1080p.AMZN.WEBRip.DD2.0.x264-QOQ

◎译  名 一个真实的故事

◎片  名 A True Story

◎年  代 2013

◎产  地 美国

◎类  别 喜剧

◎语  言 英语

◎上映日期 2013-09-20(美国)

◎IMDb评分  5.3/10 from 202 users

◎IMDb链接  http://www.imdb.com/title/tt1524083/

◎BT之家整理 http://www.btbtt.co

◎片  长 118 分钟

◎导  演 Malcolm Goodwin

◎主  演 Katrina Bowden

      Jon Gries

      Malcolm Goodwin


◎简  介


  Mike and Matt own nothing and share everything| including their life's work| a screenplay which seems to be their only escape from the harsh reality that is theHollywood machine. Mike and Matt's friendship is put to the test as they fight to maintain their integrity amongst Hollywood's biggest temptations; money| greed| andslutty ex-girlfriends.


Video
ID                                       : 1
Format                                   : AVC
Format/Info                              : Advanced Video Codec
Format profile                           : High@L4
Format settings                          : CABAC / 4 Ref Frames
Format settings, CABAC                   : Yes
Format settings, ReFrames                : 4 frames
Codec ID                                 : V_MPEG4/ISO/AVC
Duration                                 : 1 h 36 min
Bit rate mode                            : Variable
Bit rate                                 : 4 928 kb/s
Maximum bit rate                         : 15.0 Mb/s
Width                                    : 1 920 pixels
Height                                   : 1 040 pixels
Display aspect ratio                     : 1.85:1
Frame rate mode                          : Constant
Frame rate                               : 23.976 (24000/1001) FPS
Color space                              : YUV
Chroma subsampling                       : 4:2:0
Bit depth                                : 8 bits
Scan type                                : Progressive
Bits/(Pixel*Frame)                       : 0.103
Stream size                              : 3.31 GiB (96%)
Default                                  : Yes
Forced                                   : No
Color range                              : Limited
Color primaries                          : BT.709
Transfer characteristics                 : BT.709
Matrix coefficients                      : BT.709

Audio
ID                                       : 2
Format                                   : E-AC-3
Format/Info                              : Enhanced Audio Coding 3
Codec ID                                 : A_EAC3
Duration                                 : 1 h 36 min
Bit rate mode                            : Constant
Bit rate                                 : 224 kb/s
Channel(s)                               : 2 channels
Channel positions                        : Front: L R
Sampling rate                            : 48.0 kHz
Frame rate                               : 187.500 FPS (256 SPF)
Compression mode                         : Lossy
Stream size                              : 154 MiB (4%)
Language                                 : English
Service kind                             : Complete Main
Default                                  : Yes
Forced                                   : No

Text #1
ID                                       : 3
Format                                   : UTF-8
Codec ID                                 : S_TEXT/UTF8
Codec ID/Info                            : UTF-8 Plain Text
Duration                                 : 1 h 33 min
Bit rate                                 : 78 b/s
Count of elements                        : 1700
Stream size                              : 53.7 KiB (0%)
Language                                 : English
Default                                  : No
Forced                                   : No

Text #2
ID                                       : 4
Format                                   : UTF-8
Codec ID                                 : S_TEXT/UTF8
Codec ID/Info                            : UTF-8 Plain Text
Duration                                 : 1 h 33 min
Bit rate                                 : 79 b/s
Count of elements                        : 1727
Stream size                              : 54.6 KiB (0%)
Title                                    : SDH
Language                                 : English
Default                                  : No
Forced                                   : No




1 个附件 售价 大小 下载 时间

A.True.Story.2013.1080p.AMZN.WEBRip.DD2.0.x264-QOQ[btbtt.me].torrent 0 金币 69.72K 1001 次 3月前

#1楼
发帖时间:2018-03-13 21:58:37   |   回复数:4
blue23
隐世仙人♂
感谢楼主分享
3月前 #2楼
liang3109
小有名气
多谢楼主分享。
3月前 #3楼
liyouchai
超凡入圣№
谢谢楼主分享资源
3月前 #4楼
911degrees
隐世仙人♂
非常感谢,谢谢分享
3月前 #5楼
游客组