aoloffline
版主

[2018] [欧美] [惊悚] [WEB-1080P] [BT下载]收割伊丽莎白 Elizabeth.Harvest.2018.1080p.WEB-DL.DD5.1.H264-FGT 3.7GB

-->

Elizabeth.Harvest.2018.1080p.WEB-DL.DD5.1.H264-FGT

◎译  名 收割伊丽莎白

◎片  名 Elizabeth Harvest

◎年  代 2018

◎产  地 美国

◎类  别 科幻/惊悚

◎语  言 英语

◎上映日期 2019(美国)

◎IMDb评分  7.4/10 from 45 users

◎IMDb链接  http://www.imdb.com/title/tt6852872/

◎BT之家整理 http://www.btbtt.co 

◎片  长 108

◎导  演 塞巴斯蒂安·古提耶雷兹 Sebastian Gutierrez

◎主  演 阿比·丽 Abbey Lee

      卡拉·古奇诺 Carla Gugino

      塞伦·希德 Ciarán Hinds

      迪伦·贝克 Dylan Baker

      马修·比尔德 Matthew Beard


◎简  介


  Newlywed Elizabeth (Abbey Lee) arrives with her brilliant scientist husband Henry (Ciarán Hinds) to his magnificent estate, where he wows her with lavish dinners and a dazzling tour of the property. The house staff Claire (Carla Gugino) and Oliver (Matthew Beard) treat her deferentially but she can't shake the feeling something is off. Henry explains that everything in his world now belongs to her, all is for her to play in - all except for a locked-off room he forbids her from entering. When he goes away for business, Elizabeth decides to investigate.


Video
ID : 1
Format : AVC
Format/Info : Advanced Video Codec
Format profile : High@L4
Format settings : CABAC / 5 Ref Frames
Format settings, CABAC : Yes
Format settings, ReFrames : 5 frames
Codec ID : V_MPEG4/ISO/AVC
Duration : 1 h 48 min
Bit rate : 4 557 kb/s
Width : 1 920 pixels
Height : 800 pixels
Display aspect ratio : 2.40:1
Frame rate mode : Constant
Frame rate : 23.976 (23976/1000) FPS
Color space : YUV
Chroma subsampling : 4:2:0
Bit depth : 8 bits
Scan type : Progressive
Bits/(Pixel*Frame) : 0.124
Stream size : 3.46 GiB (92%)
Title : Elizabeth.Harvest.2018.1080p.WEB-DL.DD5.1.H264-FGT
Language : English
Default : Yes
Forced : No
Color range : Limited
Color primaries : BT.709
Transfer characteristics : BT.709
Matrix coefficients : BT.709

Audio
ID : 2
Format : AC-3
Format/Info : Audio Coding 3
Codec ID : A_AC3
Duration : 1 h 48 min
Bit rate mode : Constant
Bit rate : 384 kb/s
Channel(s) : 6 channels
Channel positions : Front: L C R, Side: L R, LFE
Sampling rate : 48.0 kHz
Frame rate : 31.250 FPS (1536 SPF)
Bit depth : 16 bits
Compression mode : Lossy
Stream size : 299 MiB (8%)
Title : Elizabeth.Harvest.2018.1080p.WEB-DL.DD5.1.H264-FGT
Language : English
Service kind : Complete Main
Default : Yes
Forced : No

Menu
00:00:00.000 : en:1
00:12:14.067 : en:2
00:23:21.025 : en:3
00:34:24.438 : en:4
00:44:32.170 : en:5
00:54:55.084 : en:6
01:03:55.791 : en:7
01:16:04.644 : en:8
01:27:47.930 : en:9
01:44:34.269 : en:10




1 个附件 售价 大小 下载 时间

Elizabeth.Harvest.2018.1080p.WEB-DL.DD5.1.H264-FGT[btbtt.me].torrent 0 金币 75.66K 931 次 6天前

#1楼
发帖时间:2018-08-10 15:27:14   |   回复数:3
liyouchai
超凡入圣№
谢谢楼主分享资源
5天前 #2楼
911degrees
隐世仙人♂
非常感谢,谢谢分享
5天前 #3楼
blue23
隐世仙人♂
感谢楼主分享
5天前 #4楼
游客组