aoloffline
版主

[2015] [欧美] [剧情] [BD-Remux] [BT下载]从天而降 John.From.2015.1080p.BluRay.REMUX.AVC.DTS-HD.MA.5.1-FGT 22GB

-->

.PORTUGUESE.

John.From.2015.PORTUGUESE.1080p.BluRay.REMUX.AVC.DTS-HD.MA.5.1-FGT

◎译  名 从天而降

◎片  名 John From

◎年  代 2015

◎产  地 葡萄牙

◎类  别 剧情

◎语  言 葡萄牙语

◎上映日期 2016-03-31(葡萄牙)

◎IMDb评分  6.6/10 from 331 users

◎IMDb链接  http://www.imdb.com/title/tt3977428/

◎BT之家整理 http://www.btbtt.co 

◎片  长 100分钟

◎导  演 若昂·尼科罗 João Nicolau

◎主  演 Luísa Cruz

      António Fonseca

      Adriano Luz

      Julia Palha

      里诺尔·森微娜 Leonor Silveira

      Filipe Vargas


◎简  介


  Bored by spending the summer in the city| 15-year-old Rita decides to take a fancy to her new neighbor| a photographer who is setting up an exhibit of his shots inMelanesia. What starts as a game turns into a blazing crush and Rita can't distinguish between reality and fantasy anymore.


Video
ID : 1
Format : AVC
Format/Info : Advanced Video Codec
Format profile : High@L4.1
Format settings : CABAC / 3 Ref Frames
Format settings, CABAC : Yes
Format settings, ReFrames : 3 frames
Codec ID : V_MPEG4/ISO/AVC
Duration : 1 h 38 min
Bit rate mode : Variable
Bit rate : 28.6 Mb/s
Maximum bit rate : 39.4 Mb/s
Width : 1 920 pixels
Height : 1 080 pixels
Display aspect ratio : 16:9
Frame rate mode : Constant
Frame rate : 24.000 FPS
Standard : NTSC
Color space : YUV
Chroma subsampling : 4:2:0
Bit depth : 8 bits
Scan type : Progressive
Bits/(Pixel*Frame) : 0.576
Stream size : 19.7 GiB (89%)
Title : John.From.2015.PORTUGUESE.1080p.BluRay.REMUX.AVC.DTS-HD.MA.5.1-FGT
Writing library : x264pro - Adobe CS Exporter Plug-in
Encoding settings : cabac=1 / ref=4 / deblock=1:-1:-1 / analyse=0x3:0x133 / me=umh / subme=10 / psy=1 / psy_rd=1.00:0.15 / mixed_ref=1 / me_range=24 / chroma_me=1 / trellis=2 / 8x8dct=1 / cqm=0 / deadzone=21,11 / fast_pskip=1 / chroma_qp_offset=-3 / threads=12 / lookahead_threads=2 / sliced_threads=0 / slices=4 / nr=0 / decimate=1 / interlaced=0 / bluray_compat=1 / constrained_intra=0 / bframes=3 / b_pyramid=1 / b_adapt=2 / b_bias=0 / direct=3 / weightb=1 / open_gop=0 / weightp=1 / keyint=24 / keyint_min=1 / scenecut=40 / intra_refresh=0 / rc_lookahead=24 / rc=2pass / mbtree=1 / bitrate=28644 / ratetol=1.0 / qcomp=0.60 / qpmin=0 / qpmax=69 / qpstep=4 / cplxblur=20.0 / qblur=0.5 / vbv_maxrate=39422 / vbv_bufsize=30000 / nal_hrd=vbr / ip_ratio=1.40 / aq=1:1.24
Language : English
Default : No
Forced : No
Color range : Limited
Color primaries : BT.709
Transfer characteristics : BT.709
Matrix coefficients : BT.709

Audio #1
ID : 2
Format : DTS
Format/Info : Digital Theater Systems
Format profile : MA / Core
Codec ID : A_DTS
Duration : 1 h 38 min
Bit rate mode : Variable / Constant
Bit rate : 1 868 kb/s / 1 509 kb/s
Channel(s) : 6 channels
Channel positions : Front: L C R, Side: L R, LFE
Sampling rate : 48.0 kHz
Frame rate : 93.750 FPS (512 SPF)
Bit depth : 16 bits
Compression mode : Lossless / Lossy
Stream size : 1.29 GiB (6%)
Title : John.From.2015.PORTUGUESE.1080p.BluRay.REMUX.AVC.DTS-HD.MA.5.1-FGT
Language : Portuguese
Default : Yes
Forced : No

Audio #2
ID : 3
Format : DTS
Format/Info : Digital Theater Systems
Codec ID : A_DTS
Duration : 1 h 38 min
Bit rate mode : Constant
Bit rate : 1 509 kb/s
Channel(s) : 6 channels
Channel positions : Front: L C R, Side: L R, LFE
Sampling rate : 48.0 kHz
Frame rate : 93.750 FPS (512 SPF)
Bit depth : 16 bits
Compression mode : Lossy
Stream size : 1.04 GiB (5%)
Title : John.From.2015.PORTUGUESE.1080p.BluRay.REMUX.AVC.DTS-HD.MA.5.1-FGT
Language : Portuguese
Default : No
Forced : No

Text #1
ID : 4
Format : PGS
Muxing mode : zlib
Codec ID : S_HDMV/PGS
Codec ID/Info : Picture based subtitle format used on BDs/HD-DVDs
Duration : 1 h 34 min
Bit rate : 12.3 kb/s
Count of elements : 953
Stream size : 8.36 MiB (0%)
Title : English-PGS
Language : English
Default : Yes
Forced : Yes

Text #2
ID : 5
Format : PGS
Muxing mode : zlib
Codec ID : S_HDMV/PGS
Codec ID/Info : Picture based subtitle format used on BDs/HD-DVDs
Duration : 1 h 34 min
Bit rate : 11.3 kb/s
Count of elements : 959
Stream size : 7.67 MiB (0%)
Title : Spanish-PGS
Language : Spanish
Default : No
Forced : No

Menu
00:00:00.000 : en:Chapter 01
00:12:19.625 : en:Chapter 02
00:24:05.208 : en:Chapter 03
00:36:39.166 : en:Chapter 04
00:49:01.333 : en:Chapter 05
01:01:10.583 : en:Chapter 06
01:14:22.958 : en:Chapter 07
01:24:59.875 : en:Chapter 08




1 个附件 售价 大小 下载 时间

John.From.2015.PORTUGUESE.1080p.BluRay.REMUX.AVC.DTS-HD.MA.5.1-FGT[btbtt.me].torrent 0 金币 55.73K 420 次 3月前

#1楼
发帖时间:2018-08-10 17:43:48   |   回复数:5
二月妙
一派掌门
这是讲什么的,全英文啊,汗
3月前 #2楼
tanchoohoon
武林盟主
感谢楼主的无私分享!
3月前 #3楼
liyouchai
超凡入圣№
谢谢楼主分享资源
3月前 #4楼
911degrees
隐世仙人♂
非常感谢,谢谢分享
3月前 #5楼
blue23
隐世仙人♂
感谢楼主分享
3月前 #6楼
游客组