aoloffline
版主

[2012] [欧美] [动画] [BD-4K] [ВТ下载]无敌破坏王 2012.2160p.BluRay.x265.10bit.SDR.TrueHD.7.1.Atmos-SWTYBLZ 17GB

-->

自带中字

Wreck-It.Ralph.2012.2160p.BluRay.x265.10bit.SDR.TrueHD.7.1.Atmos-SWTYBLZ

◎译  名 无敌破坏王 / 破坏王大冒险 / 破坏王拉尔夫

◎片  名 Wreck-It Ralph

◎年  代 2012

◎产  地 美国

◎类  别 喜剧 / 动画 / 奇幻 / 冒险

◎语  言 英语

◎上映日期 2012-11-02(美国) / 2012-11-06(中国大陆)

◎IMDb评分 7.7/10 from 319764 users

◎IMDb链接 http://www.imdb.com/title/tt1772341

◎豆瓣评分 8.7/10 from 215591 users

◎豆瓣链接 https://movie.douban.com/subject/6534248/

◎BT之家整理 http://www.btbtt.us/

◎片  长 101分钟

◎导  演 瑞奇·莫尔 Rich Moore

◎编  剧 菲尔·约翰斯顿 Phil Johnston / 珍妮弗·李 Jennifer Lee / 瑞奇·摩尔 Rich Moore / 吉姆·里尔顿 Jim Reardon / 约翰·C·赖利 John C. Reilly / 山姆·J·莱文 Sam J. Levine / 贾里德·斯特恩 Jared Stern

◎主  演 约翰·C·赖利 John C. Reilly

      萨拉·西尔弗曼 Sarah Silverman

      杰克·麦克布瑞尔 Jack McBrayer

      简·林奇 Jane Lynch

      艾伦·图代克 Alan Tudyk

      敏迪·卡灵 Mindy Kaling

      乔·洛·特鲁格里奥 Joe Lo Truglio

      艾德·奥尼尔 Ed O'Neill

      丹尼斯·海斯伯特 Dennis Haysbert

      伊迪·迈克莱尔 Edie McClurg

      雷蒙德·S·佩尔西 Raymond S. Persi

      杰斯·哈梅尔 Jess Harnell

      瑞秋·哈里斯 Rachael Harris

      斯盖拉·阿斯丁 Skylar Astin

      亚当·卡罗拉 Adam Carolla

      霍拉提奥·桑斯 Horatio Sanz

      莫里斯·拉马奇 Maurice LaMarche

      斯戴芬妮·斯考特 Stefanie Scott

      约翰·迪·玛吉欧 John Di Maggio

      瑞奇·摩尔 Rich Moore

      凯蒂·洛斯 Katie Lowes

      贾米·埃曼 Jamie Elman

      乔西·特立尼达 Josie Trinidad

      辛贝·沃克 Cymbre Walk

      塔克·吉莫尔 Tucker Gilmore

      布兰登·斯考特 Brandon Scott

      蒂姆·梅尔滕斯 Tim Mertens

      凯文·迪特斯 Kevin Deters

      杰洛·里佛斯 Gerald C. Rivers

      马丁·贾维斯 Martin Jarvis

      布莱恩·克辛格 Brian Kesinger

      罗杰·克莱格·史密斯 Roger Craig Smith

      菲尔·约翰斯顿 Phil Johnston

      鲁本·兰登 Reuben Langdon

      凯尔·赫伯特 Kyle Hebert

      洁米·斯贝勒·罗伯茨 Jamie Sparer Roberts

      尼克·格里姆肖 Nick Grimshaw



◎标  签 动画 | 迪斯尼 | 美国 | 喜剧 | 游戏 | 搞笑 | 2012 | 冒险


◎简  介  


  无敌破坏王(约翰·C·赖利 John C. Reilly 配音)生活在一个80年代出品的低精度游戏中。他的设定身份是一个反派,每天的生活就是在游戏《快手阿修》中大搞破坏,其后由玩家操作的英雄人物快手阿修(杰克·麦克布瑞尔 Jack McBrayer 配音) 会及时赶到进行修补,赢得奖牌,包揽一切荣耀。身为反派,破坏王厌倦了自己的生活,眼看阿修被胜利者的光环围绕,自己却日复一日在无趣中过活,他终于决定改变。单纯的他以为只要自己也能得到一枚奖牌,就可以摆脱反派的身份,于是某日在游戏厅歇业后,破坏王偷偷离开了自己的游戏,前去闯荡其他电子游戏的世界。

在途中,破坏王结识了来自《英雄使命》的冷酷队长(简·林奇 Jane Lynch 配音)和来自90年代糖果赛车游戏《甜蜜冲刺》的小女孩云妮(萨拉·丝沃曼 Sarah Silverman 配音)。后者梦想着能上场比赛,但其身份也不允许她梦想成真。破坏王所属的游戏《快手阿修》由于失去了他被认定为系统错误,如不尽快返回,则游戏就会被永久删除;而《甜蜜冲刺》的游戏世界则在悄悄酝酿着一场巨大的、威胁到整个游戏世界的阴谋。这也许是无敌破坏王实现梦想的机会,但也可能是一条不归路…… 他可以扭转乾坤,成为一名真正的英雄吗?


◎获奖情况  


  第85届奥斯卡金像奖(2013)

  最佳动画长片(提名) 瑞奇·摩尔


  第70届金球奖(2013)

  电影类 最佳动画长片(提名)


  第40届动画安妮奖(2013)

  最佳动画长片

  最佳导演 瑞奇·摩尔

  最佳编剧 菲尔·约翰斯顿 / 珍妮弗·李

  最佳配音 艾伦·图代克

  最佳配乐 Jamie Houston / 亨利·杰克曼 / 秋元康 / 亚当·杨

  最佳剪辑(提名)

  最佳分镜(提名)

  最佳角色设计(提名) Minkyu Lee

  最佳动画效果(提名)


  第84届美国国家评论协会奖(2013)

  最佳动画片


  第18届美国评论家选择电影奖(2013)

  最佳动画片


  第17届金卫星奖(2012)

  电影部门 最佳动画片(提名)


  第11届华盛顿影评人协会奖(2012)

  最佳动画片(提名)


  第17届圣地亚哥影评人协会奖(2012)

  最佳动画片(提名)


  第25届芝加哥影评人协会奖(2012)

  最佳动画片(提名)


  第12届凤凰城影评人协会奖(2012)

  最佳原创歌曲(提名) 亚当·杨

  最佳动画片


  第3届豆瓣电影鑫像奖(2013)

  鑫豆单元 最佳动画长片


Video
ID : 1
Format : HEVC
Format/Info : High Efficiency Video Coding
Format profile : Main 10@L5.1@High
Codec ID : V_MPEGH/ISO/HEVC
Duration : 1 h 41 min
Bit rate : 19.1 Mb/s
Width : 3 840 pixels
Height : 1 608 pixels
Display aspect ratio : 2.40:1
Frame rate mode : Constant
Frame rate : 23.976 (24000/1001) FPS
Color space : YUV
Chroma subsampling : 4:2:0
Bit depth : 10 bits
Bits/(Pixel*Frame) : 0.129
Stream size : 13.5 GiB (78%)
Title : Wreck-It.Ralph.2012.2160p.BluRay.x265.10bit.SDR.TrueHD.7.1.Atmos-SWTYBLZ
Writing library : x265 2.9 4-471726d3a046:[Windows][GCC 8.2.0][64 bit] 10bit
Encoding settings : cpuid=1111039 / frame-threads=16 / numa-pools=20 / wpp / no-pmode / no-pme / no-psnr / no-ssim / log-level=2 / input-csp=1 / input-res=3840x1608 / interlace=0 / total-frames=145639 / level-idc=51 / high-tier=1 / uhd-bd=0 / ref=3 / no-allow-non-conformance / repeat-headers / annexb / aud / hrd / info / hash=0 / no-temporal-layers / no-open-gop / min-keyint=1 / keyint=24 / gop-lookahead=0 / bframes=4 / b-adapt=2 / b-pyramid / bframe-bias=0 / rc-lookahead=25 / lookahead-slices=4 / scenecut=40 / radl=0 / no-intra-refresh / ctu=64 / min-cu-size=8 / no-rect / no-amp / max-tu-size=32 / tu-inter-depth=1 / tu-intra-depth=1 / limit-tu=0 / rdoq-level=0 / dynamic-rd=0.00 / no-ssim-rd / signhide / no-tskip / nr-intra=0 / nr-inter=0 / no-constrained-intra / strong-intra-smoothing / max-merge=2 / limit-refs=3 / no-limit-modes / me=1 / subme=2 / merange=57 / temporal-mvp / weightp / no-weightb / no-analyze-src-pics / deblock=0:0 / no-sao / no-sao-non-deblock / rd=3 / no-early-skip / rskip / no-fast-intra / no-tskip-fast / no-cu-lossless / no-b-intra / no-splitrd-skip / rdpenalty=0 / psy-rd=2.00 / psy-rdoq=0.00 / no-rd-refine / no-lossless / cbqpoffs=0 / crqpoffs=0 / rc=crf / crf=16.0 / qcomp=0.60 / qpstep=4 / stats-write=0 / stats-read=0 / vbv-maxrate=160000 / vbv-bufsize=160000 / vbv-init=0.9 / crf-max=0.0 / crf-min=0.0 / ipratio=1.40 / pbratio=1.30 / aq-mode=1 / aq-strength=1.00 / cutree / zone-count=0 / no-strict-cbr / qg-size=32 / no-rc-grain / qpmax=69 / qpmin=0 / no-const-vbv / sar=1 / overscan=0 / videoformat=5 / range=0 / colorprim=2 / transfer=2 / colormatrix=2 / chromaloc=0 / display-window=0 / max-cll=0,0 / min-luma=0 / max-luma=1023 / log2-max-poc-lsb=8 / vui-timing-info / vui-hrd-info / slices=1 / opt-qp-pps / opt-ref-list-length-pps / no-multi-pass-opt-rps / scenecut-bias=0.05 / no-opt-cu-delta-qp / no-aq-motion / no-hdr / no-hdr-opt / no-dhdr10-opt / no-idr-recovery-sei / analysis-reuse-level=5 / scale-factor=0 / refine-intra=0 / refine-inter=0 / refine-mv=0 / no-limit-sao / ctu-info=0 / no-lowpass-dct / refine-mv-type=0 / copy-pic=1 / max-ausize-factor=1.0 / no-dynamic-refine / no-single-sei
Default : Yes
Forced : No

Audio #1
ID : 2
Format : MLP FBA 16-ch
Format/Info : Meridian Lossless Packing FBA with 16-channel presentation
Commercial name : Dolby TrueHD with Dolby Atmos
Codec ID : A_TRUEHD
Duration : 1 h 41 min
Bit rate mode : Variable
Bit rate : 4 598 kb/s
Maximum bit rate : 5 742 kb/s
Channel(s) : 8 channels
Channel layout : L R C LFE Ls Rs Lb Rb
Sampling rate : 48.0 kHz
Frame rate : 1 200.000 FPS (40 SPF)
Compression mode : Lossless
Stream size : 3.25 GiB (19%)
Title : Wreck-It.Ralph.2012.2160p.BluRay.x265.10bit.SDR.TrueHD.7.1.Atmos-SWTYBLZ
Language : English
Default : Yes
Forced : No
Number of dynamic objects : 13
Bed channel count : 1 channel
Bed channel configuration : LFE

Audio #2
ID : 3
Format : AC-3
Format/Info : Audio Coding 3
Commercial name : Dolby Digital
Codec ID : A_AC3
Duration : 1 h 41 min
Bit rate mode : Constant
Bit rate : 640 kb/s
Channel(s) : 6 channels
Channel layout : L R C LFE Ls Rs
Sampling rate : 48.0 kHz
Frame rate : 31.250 FPS (1536 SPF)
Bit depth : 16 bits
Compression mode : Lossy
Stream size : 463 MiB (3%)
Title : Wreck-It.Ralph.2012.2160p.BluRay.x265.10bit.SDR.TrueHD.7.1.Atmos-SWTYBLZ
Language : English
Service kind : Complete Main
Default : No
Forced : No

Text #1
ID : 4
Format : UTF-8
Codec ID : S_TEXT/UTF8
Codec ID/Info : UTF-8 Plain Text
Duration : 1 h 40 min
Bit rate : 68 b/s
Count of elements : 1646
Stream size : 50.3 KiB (0%)
Title : English-SRT
Language : English
Default : Yes
Forced : No

Text #2
ID : 5
Format : UTF-8
Codec ID : S_TEXT/UTF8
Codec ID/Info : UTF-8 Plain Text
Duration : 1 h 32 min
Bit rate : 67 b/s
Count of elements : 1494
Stream size : 45.6 KiB (0%)
Title : English-SDH-SRT
Language : English
Default : No
Forced : No

Text #3
ID : 6
Format : PGS
Muxing mode : zlib
Codec ID : S_HDMV/PGS
Codec ID/Info : Picture based subtitle format used on BDs/HD-DVDs
Duration : 1 h 40 min
Bit rate : 47.5 kb/s
Count of elements : 3748
Stream size : 34.0 MiB (0%)
Title : English-PGS
Language : English
Default : No
Forced : No

Text #4
ID : 7
Format : PGS
Muxing mode : zlib
Codec ID : S_HDMV/PGS
Codec ID/Info : Picture based subtitle format used on BDs/HD-DVDs
Duration : 1 h 32 min
Bit rate : 41.8 kb/s
Count of elements : 2989
Stream size : 27.6 MiB (0%)
Title : English-SDH-PGS
Language : English
Default : No
Forced : No

Text #5
ID : 8
Format : PGS
Muxing mode : zlib
Codec ID : S_HDMV/PGS
Codec ID/Info : Picture based subtitle format used on BDs/HD-DVDs
Duration : 1 h 34 min
Bit rate : 42.9 kb/s
Count of elements : 3107
Stream size : 28.9 MiB (0%)
Title : French-PGS
Language : French
Default : No
Forced : No

Text #6
ID : 9
Format : PGS
Muxing mode : zlib
Codec ID : S_HDMV/PGS
Codec ID/Info : Picture based subtitle format used on BDs/HD-DVDs
Duration : 1 h 34 min
Bit rate : 39.2 kb/s
Count of elements : 2657
Stream size : 26.4 MiB (0%)
Title : Spanish-PGS
Language : Spanish
Default : No
Forced : No

Text #7
ID : 10
Format : PGS
Muxing mode : zlib
Codec ID : S_HDMV/PGS
Codec ID/Info : Picture based subtitle format used on BDs/HD-DVDs
Duration : 1 h 32 min
Bit rate : 33.3 kb/s
Count of elements : 2757
Stream size : 22.0 MiB (0%)
Title : Japanese-PGS
Language : Japanese
Default : No
Forced : No

Text #8
ID : 11
Format : PGS
Muxing mode : zlib
Codec ID : S_HDMV/PGS
Codec ID/Info : Picture based subtitle format used on BDs/HD-DVDs
Duration : 1 h 34 min
Bit rate : 22.0 kb/s
Count of elements : 2716
Stream size : 14.8 MiB (0%)
Title : Korean-PGS
Language : Korean
Default : No
Forced : No

Text #9
ID : 12
Format : PGS
Muxing mode : zlib
Codec ID : S_HDMV/PGS
Codec ID/Info : Picture based subtitle format used on BDs/HD-DVDs
Duration : 1 h 32 min
Bit rate : 28.7 kb/s
Count of elements : 3212
Stream size : 19.0 MiB (0%)
Title : Chinese-PGS
Language : Chinese
Default : No
Forced : No

Text #10
ID : 13
Format : PGS
Muxing mode : zlib
Codec ID : S_HDMV/PGS
Codec ID/Info : Picture based subtitle format used on BDs/HD-DVDs
Duration : 1 h 32 min
Bit rate : 33.1 kb/s
Count of elements : 3799
Stream size : 21.9 MiB (0%)
Title : Chinese-PGS
Language : Chinese
Default : No
Forced : No

Text #11
ID : 14
Format : PGS
Muxing mode : zlib
Codec ID : S_HDMV/PGS
Codec ID/Info : Picture based subtitle format used on BDs/HD-DVDs
Duration : 1 h 34 min
Bit rate : 1 021 b/s
Count of elements : 120
Stream size : 705 KiB (0%)
Title : French-PGS
Language : French
Default : No
Forced : No

Text #12
ID : 15
Format : PGS
Muxing mode : zlib
Codec ID : S_HDMV/PGS
Codec ID/Info : Picture based subtitle format used on BDs/HD-DVDs
Duration : 1 h 34 min
Bit rate : 765 b/s
Count of elements : 100
Stream size : 528 KiB (0%)
Title : Spanish-PGS
Language : Spanish
Default : No
Forced : No

Text #13
ID : 16
Format : PGS
Muxing mode : zlib
Codec ID : S_HDMV/PGS
Codec ID/Info : Picture based subtitle format used on BDs/HD-DVDs
Duration : 1 h 40 min
Bit rate : 137 b/s
Count of elements : 54
Stream size : 101 KiB (0%)
Title : Japanese-PGS
Language : Japanese
Default : No
Forced : No

Text #14
ID : 17
Format : PGS
Muxing mode : zlib
Codec ID : S_HDMV/PGS
Codec ID/Info : Picture based subtitle format used on BDs/HD-DVDs
Duration : 1 h 34 min
Bit rate : 728 b/s
Count of elements : 150
Stream size : 503 KiB (0%)
Title : Korean-PGS
Language : Korean
Default : No
Forced : No

Text #15
ID : 18
Format : PGS
Muxing mode : zlib
Codec ID : S_HDMV/PGS
Codec ID/Info : Picture based subtitle format used on BDs/HD-DVDs
Duration : 1 h 32 min
Bit rate : 1 080 b/s
Count of elements : 145
Stream size : 732 KiB (0%)
Title : Chinese-PGS
Language : Chinese
Default : No
Forced : No

Menu
00:00:00.000 : :Chapter 1
00:07:12.974 : :Chapter 2
00:16:35.744 : :Chapter 3
00:27:08.334 : :Chapter 4
00:37:26.786 : :Chapter 5
00:44:47.517 : :Chapter 6
00:48:45.964 : :Chapter 7
00:51:36.843 : :Chapter 8
00:58:56.866 : :Chapter 9
01:09:08.727 : :Chapter 10
01:13:40.457 : :Chapter 11
01:15:57.635 : :Chapter 12
01:18:53.811 : :Chapter 13
01:21:54.575 : :Chapter 14
01:27:26.198 : :Chapter 15
01:33:11.376 : :Chapter 16




1 个附件 售价 大小 下载 时间

Wreck-It.Ralph.2012.2160p.BluRay.x265.10bit.SDR.TrueHD.7.1.Atmos-SWTYBLZ[btbtt.me].torrent 0 金币 87.90K 504 次 7天前

#1楼
发帖时间:2018-11-09 10:55:23   |   回复数:3
911degrees
隐世仙人♂
非常感谢,谢谢分享
7天前 #2楼
liyouchai
超凡入圣№
谢谢楼主分享资源
6天前 #3楼
blue23
隐世仙人♂
感谢楼主分享
5天前 #4楼
游客组