aoloffline
版主

[更 早] [欧美] [动作] [BD-1080P] [ВТ下载]末路鸳鸯 Heavens.Burning.1997.1080p.BluRay.x264.DTS-FGT 9.01GB

-->

Heavens.Burning.1997.1080p.BluRay.x264.DTS-FGT


◎译  名 末路鸳鸯 / 新娘向后跑

◎片  名 Heaven's Burning

◎年  代 1997

◎产  地 澳大利亚

◎类  别 剧情 / 动作 / 爱情 / 惊悚 / 犯罪

◎语  言 日语 / 英语

◎上映日期 1997-09-04

◎IMDb评分 5.8/10 from 1692 users

◎IMDb链接 http://www.imdb.com/title/tt0119272

◎豆瓣评分 7.0/10 from 69 users

◎豆瓣链接 https://movie.douban.com/subject/1302723/

◎BT之家整理 http://www.btbtt.us/

◎片  长 96 分钟

◎导  演 Craig Lahiff

◎编  剧 Louis Nowra

◎主  演 Russell Crowe

      Youki Kudoh

      Ray Barrett

      Kenji Isomura

      Robert Mammone





◎简  介  


  日本新娘Midori为了逃避新婚之夜、然后与情人私奔,自导自演了一出绑架案,但是没想到,计划却有了出乎意料的转变。首先,她的情人没有在约定的时间出现,可怜的Midori只好独自一人在澳洲悉尼游荡。当她进入当地银行兑现零钱时,巧遇一宗由阿富汗难民所主导的抢劫案。在一阵混乱中,抢案失败,劫匪挟持Midori为人质。当歹徒正打算杀她灭口时,他们所雇用的司机Colin竟出面救了Midori。于是,两人携手展开一场横越澳洲的亡命之旅。

但是,日本与澳洲的警方及Midori愤怒疯狂的丈夫都在后紧追不舍。这一对亡命鸳鸯是否能逃出这条不归路?


Video
ID : 1
Format : AVC
Format/Info : Advanced Video Codec
Format profile : High@L4.1
Format settings : CABAC / 4 Ref Frames
Format settings, CABAC : Yes
Format settings, ReFrames : 4 frames
Codec ID : V_MPEG4/ISO/AVC
Duration : 1 h 39 min
Bit rate : 11.5 Mb/s
Width : 1 920 pixels
Height : 804 pixels
Display aspect ratio : 2.40:1
Frame rate mode : Constant
Frame rate : 24.000 FPS
Color space : YUV
Chroma subsampling : 4:2:0
Bit depth : 8 bits
Scan type : Progressive
Bits/(Pixel*Frame) : 0.310
Stream size : 7.96 GiB (88%)
Title : Heavens.Burning.1997.1080p.BluRay.x264.DTS-FGT
Writing library : x264 core 148 r2795M aaa9aa8
Encoding settings : cabac=1 / ref=4 / deblock=1:-2:-2 / analyse=0x3:0x113 / me=umh / subme=9 / psy=1 / psy_rd=1.00:0.15 / mixed_ref=1 / me_range=16 / chroma_me=1 / trellis=2 / 8x8dct=1 / cqm=0 / deadzone=21,11 / fast_pskip=1 / chroma_qp_offset=-3 / threads=24 / lookahead_threads=3 / sliced_threads=0 / nr=0 / decimate=1 / interlaced=0 / bluray_compat=0 / constrained_intra=0 / bframes=3 / b_pyramid=2 / b_adapt=1 / b_bias=0 / direct=3 / weightb=1 / open_gop=0 / weightp=2 / keyint=250 / keyint_min=25 / scenecut=40 / intra_refresh=0 / rc_lookahead=50 / rc=2pass / mbtree=1 / bitrate=11500 / ratetol=1.0 / qcomp=0.60 / qpmin=0 / qpmax=69 / qpstep=4 / cplxblur=20.0 / qblur=0.5 / vbv_maxrate=31250 / vbv_bufsize=31250 / nal_hrd=none / filler=0 / ip_ratio=1.40 / aq=1:1.00
Language : English
Default : Yes
Forced : No

Audio
ID : 2
Format : DTS
Format/Info : Digital Theater Systems
Codec ID : A_DTS
Duration : 1 h 39 min
Bit rate mode : Constant
Bit rate : 1 509 kb/s
Channel(s) : 6 channels
Channel layout : C L R Ls Rs LFE
Sampling rate : 48.0 kHz
Frame rate : 93.750 FPS (512 SPF)
Bit depth : 24 bits
Compression mode : Lossy
Stream size : 1.05 GiB (12%)
Title : Heavens.Burning.1997.1080p.BluRay.x264.DTS-FGT
Language : English
Default : Yes
Forced : No

Text
ID : 3
Format : UTF-8
Codec ID : S_TEXT/UTF8
Codec ID/Info : UTF-8 Plain Text
Duration : 1 h 26 min
Bit rate : 4 b/s
Count of elements : 95
Stream size : 2.86 KiB (0%)
Language : English
Default : Yes
Forced : No

Menu
00:00:00.000 : en:Chapter 01
00:00:21.791 : en:Chapter 02
00:07:19.083 : en:Chapter 03
00:15:46.666 : en:Chapter 04
00:24:20.500 : en:Chapter 05
00:35:54.500 : en:Chapter 06
00:42:51.291 : en:Chapter 07
00:51:41.333 : en:Chapter 08
01:00:31.250 : en:Chapter 09
01:11:56.333 : en:Chapter 10
01:21:24.500 : en:Chapter 11
01:29:53.500 : en:Chapter 12
01:36:38.708 : en:Chapter 13



1 个附件 售价 大小 下载 时间

Heavens.Burning.1997.1080p.BluRay.x264.DTS-FGT[btbtt.me].torrent 0 金币 90.61K 595 次 7天前

#1楼
发帖时间:2018-11-09 11:13:47   |   回复数:4
yangbo83222179
一代宗师
谢谢楼主分享,支持一下
7天前 #2楼
911degrees
隐世仙人♂
非常感谢,谢谢分享
7天前 #3楼
liyouchai
超凡入圣№
谢谢楼主分享资源
6天前 #4楼
blue23
隐世仙人♂
感谢楼主分享
5天前 #5楼
游客组