aoloffline
版主

[更 早] [欧美] [动作] [BD-4K] [ВТ下载]空军一号 1997.2160p.BluRay.x265.10bit.SDR.DTS-HD.MA-SWTYBLZ 49GB

-->

Air.Force.One.1997.2160p.BluRay.x265.10bit.SDR.DTS-HD.MA.TrueHD.7.1.Atmos-SWTYBLZ

◎译  名 空军一号 / AFO

◎片  名 Air Force One

◎年  代 1997

◎产  地 美国 / 德国

◎类  别 剧情 / 动作 / 惊悚

◎语  言 英语 / 俄语

◎上映日期 1997-07-21(加州洛杉矶世纪城首映) / 1997-07-25(美国)

◎IMDb评分 6.5/10 from 163061 users

◎IMDb链接 http://www.imdb.com/title/tt0118571

◎豆瓣评分 7.5/10 from 55061 users

◎豆瓣链接 https://movie.douban.com/subject/1293537/

◎BT之家整理 http://www.btbtt.us/

◎片  长 124分钟

◎导  演 Wolfgang Petersen

◎编  剧 Andrew W. Marlowe

◎主  演 哈里森·福特 Harrison Ford

      加里·奥德曼 Gary Oldman

      格伦·克洛斯 Glenn Close

      温迪·古逊 Wendy Crewson

      利塞尔·马修斯 Liesel Matthews

      保罗·吉尔福伊尔 Paul Guilfoyle

      山德·贝克利 Xander Berkeley

      威廉姆·H·梅西 William H. Macy

      迪恩·斯托克维尔 Dean Stockwell

      汤姆·埃沃雷特 Tom Everett

      尤尔根·普洛斯诺 Jürgen Prochnow

      Donna Bullock

      Michael Ray Miller

      Carl Weintraub

      Elester Latham

      埃利亚·巴斯金 Elya Baskin

      Levan Uchaneishvili

      David Vadim

      安德鲁·迪沃夫 Andrew Divoff

      伊利亚·沃里克 Ilia Volok

      Chris Howell

      斯宾塞·加雷特 Spencer Garrett

      比尔·斯米托洛维奇 Bill Smitrovich

      菲利浦·贝克·霍尔 Philip Baker Hall

      Albert Owens

      威拉德·E·普 Willard E. Pugh

      Alan Woolf

      丹·肖尔 Dan Shor

      David Gianopoulos

      格伦·莫肖尔 Glenn Morshower

      Richard Doyle

      唐·麦克马纳斯 Don McManus

      J.A. Preston




◎简  介  


  俄美两国策划一起反恐行动,派出特种部队擒获了掌握核武器的哈萨克王国独裁者伊万•雷迪克将军(Jurgen Prochnow 饰)。数周后的庆功宴上,曾为越战老兵的美国总统詹姆斯•马舍尔(哈里森•福特Harrison Ford 饰)针对恐怖分子和独裁政权发表了强硬而精彩的演说。莫斯科之旅圆满结束,总统一家及其政要乘空军一号返回美国,同行的还有艾格(加里•奥德曼 Gary Oldman 饰)带队的俄罗斯媒体工作人员。

安全人员百密一疏,艾格的真实身份是效忠于雷迪克将军的恐怖分子。飞机起飞后,艾格和同伴们劫持飞机,绑架美国政要及总统家人,只有詹姆斯侥幸逃脱。恐怖分子要求俄美释放雷迪克将军,而藏身空军一号中的詹姆斯则和这群匪徒展开殊死决斗……


◎获奖情况  


  第70届奥斯卡金像奖(1998)

  最佳剪辑(提名) 理查德·弗朗西斯-布鲁斯

  最佳音响(提名) 道格·亨普希尔 / 保罗·马瑟 / 基思·A·韦斯特 / 里克·克莱恩


  第21届日本电影学院奖(1998)

  最佳外语片(提名)


Video
ID : 1
Format : HEVC
Format/Info : High Efficiency Video Coding
Format profile : Main 10@L5.1@High
Codec ID : V_MPEGH/ISO/HEVC
Duration : 2 h 4 min
Bit rate : 46.0 Mb/s
Width : 3 840 pixels
Height : 1 600 pixels
Display aspect ratio : 2.40:1
Frame rate mode : Constant
Frame rate : 23.976 (24000/1001) FPS
Color space : YUV
Chroma subsampling : 4:2:0
Bit depth : 10 bits
Bits/(Pixel*Frame) : 0.312
Stream size : 40.0 GiB (81%)
Title : Air.Force.One.1997.2160p.BluRay.x265.10bit.SDR.DTS-HD.MA.TrueHD.7.1.Atmos-SWTYBLZ
Writing library : x265 2.97e978ed93d60:[Windows][GCC 8.2.0][64 bit] 10bit
Encoding settings : cpuid=1111039 / frame-threads=16 / numa-pools=24,24,24,24 / wpp / no-pmode / no-pme / no-psnr / no-ssim / log-level=2 / input-csp=1 / input-res=3840x1600 / interlace=0 / total-frames=179208 / level-idc=51 / high-tier=1 / uhd-bd=0 / ref=3 / no-allow-non-conformance / repeat-headers / annexb / aud / hrd / info / hash=0 / no-temporal-layers / no-open-gop / min-keyint=1 / keyint=24 / gop-lookahead=0 / bframes=4 / b-adapt=2 / b-pyramid / bframe-bias=0 / rc-lookahead=25 / lookahead-slices=4 / scenecut=40 / radl=0 / no-intra-refresh / ctu=64 / min-cu-size=8 / no-rect / no-amp / max-tu-size=32 / tu-inter-depth=1 / tu-intra-depth=1 / limit-tu=0 / rdoq-level=0 / dynamic-rd=0.00 / no-ssim-rd / signhide / no-tskip / nr-intra=0 / nr-inter=0 / no-constrained-intra / strong-intra-smoothing / max-merge=2 / limit-refs=3 / no-limit-modes / me=1 / subme=2 / merange=57 / temporal-mvp / weightp / no-weightb / no-analyze-src-pics / deblock=0:0 / no-sao / no-sao-non-deblock / rd=3 / no-early-skip / rskip / no-fast-intra / no-tskip-fast / no-cu-lossless / no-b-intra / no-splitrd-skip / rdpenalty=0 / psy-rd=2.00 / psy-rdoq=0.00 / no-rd-refine / no-lossless / cbqpoffs=0 / crqpoffs=0 / rc=crf / crf=18.0 / qcomp=0.60 / qpstep=4 / stats-write=0 / stats-read=0 / vbv-maxrate=160000 / vbv-bufsize=160000 / vbv-init=0.9 / crf-max=0.0 / crf-min=0.0 / ipratio=1.40 / pbratio=1.30 / aq-mode=1 / aq-strength=1.00 / cutree / zone-count=0 / no-strict-cbr / qg-size=32 / no-rc-grain / qpmax=69 / qpmin=0 / no-const-vbv / sar=1 / overscan=0 / videoformat=5 / range=0 / colorprim=2 / transfer=2 / colormatrix=2 / chromaloc=0 / display-window=0 / max-cll=0,0 / min-luma=0 / max-luma=1023 / log2-max-poc-lsb=8 / vui-timing-info / vui-hrd-info / slices=1 / opt-qp-pps / opt-ref-list-length-pps / no-multi-pass-opt-rps / scenecut-bias=0.05 / no-opt-cu-delta-qp / no-aq-motion / no-hdr / no-hdr-opt / no-dhdr10-opt / no-idr-recovery-sei / analysis-reuse-level=5 / scale-factor=0 / refine-intra=0 / refine-inter=0 / refine-mv=0 / no-limit-sao / ctu-info=0 / no-lowpass-dct / refine-mv-type=0 / copy-pic=1 / max-ausize-factor=1.0 / no-dynamic-refine / no-single-sei
Default : Yes
Forced : No

Audio #1
ID : 2
Format : MLP FBA 16-ch
Format/Info : Meridian Lossless Packing FBA with 16-channel presentation
Commercial name : Dolby TrueHD with Dolby Atmos
Codec ID : A_TRUEHD
Duration : 2 h 4 min
Bit rate mode : Variable
Bit rate : 5 464 kb/s
Maximum bit rate : 8 559 kb/s
Channel(s) : 8 channels
Channel layout : L R C LFE Ls Rs Lb Rb
Sampling rate : 48.0 kHz
Frame rate : 1 200.000 FPS (40 SPF)
Compression mode : Lossless
Stream size : 4.75 GiB (10%)
Title : Air.Force.One.1997.2160p.BluRay.x265.10bit.SDR.DTS-HD.MA.TrueHD.7.1.Atmos-SWTYBLZ
Language : English
Default : Yes
Forced : No
Number of dynamic objects : 11
Bed channel count : 1 channel
Bed channel configuration : LFE

Audio #2
ID : 3
Format : DTS XLL
Format/Info : Digital Theater Systems
Commercial name : DTS-HD Master Audio
Codec ID : A_DTS
Duration : 2 h 4 min
Bit rate mode : Variable
Bit rate : 4 766 kb/s
Channel(s) : 8 channels
Channel layout : C L R LFE Lb Rb Lss Rss
Sampling rate : 48.0 kHz
Frame rate : 93.750 FPS (512 SPF)
Bit depth : 24 bits
Compression mode : Lossless
Stream size : 4.15 GiB (8%)
Title : Air.Force.One.1997.2160p.BluRay.x265.10bit.SDR.DTS-HD.MA.TrueHD.7.1.Atmos-SWTYBLZ
Language : English
Default : No
Forced : No

Audio #3
ID : 4
Format : AC-3
Format/Info : Audio Coding 3
Commercial name : Dolby Digital
Codec ID : A_AC3
Duration : 2 h 4 min
Bit rate mode : Constant
Bit rate : 640 kb/s
Channel(s) : 6 channels
Channel layout : L R C LFE Ls Rs
Sampling rate : 48.0 kHz
Frame rate : 31.250 FPS (1536 SPF)
Bit depth : 16 bits
Compression mode : Lossy
Stream size : 570 MiB (1%)
Title : Air.Force.One.1997.2160p.BluRay.x265.10bit.SDR.DTS-HD.MA.TrueHD.7.1.Atmos-SWTYBLZ
Language : English
Service kind : Complete Main
Default : No
Forced : No

Text #1
ID : 5
Format : UTF-8
Codec ID : S_TEXT/UTF8
Codec ID/Info : UTF-8 Plain Text
Duration : 1 h 17 min
Bit rate : 2 b/s
Count of elements : 54
Stream size : 1.21 KiB (0%)
Title : English-FORCED-SRT
Language : English
Default : Yes
Forced : Yes

Text #2
ID : 6
Format : UTF-8
Codec ID : S_TEXT/UTF8
Codec ID/Info : UTF-8 Plain Text
Duration : 1 h 53 min
Bit rate : 56 b/s
Count of elements : 1249
Stream size : 46.9 KiB (0%)
Title : English-SRT
Language : English
Default : No
Forced : No

Text #3
ID : 7
Format : UTF-8
Codec ID : S_TEXT/UTF8
Codec ID/Info : UTF-8 Plain Text
Duration : 1 h 53 min
Bit rate : 56 b/s
Count of elements : 1245
Stream size : 46.8 KiB (0%)
Title : English-SDH-SRT
Default : No
Forced : No

Text #4
ID : 8
Format : PGS
Muxing mode : zlib
Codec ID : S_HDMV/PGS
Codec ID/Info : Picture based subtitle format used on BDs/HD-DVDs
Duration : 1 h 57 min
Bit rate : 34.7 kb/s
Count of elements : 2915
Stream size : 29.3 MiB (0%)
Title : English-PGS
Language : English
Default : No
Forced : No

Text #5
ID : 9
Format : PGS
Muxing mode : zlib
Codec ID : S_HDMV/PGS
Codec ID/Info : Picture based subtitle format used on BDs/HD-DVDs
Duration : 1 h 53 min
Bit rate : 31.4 kb/s
Count of elements : 2491
Stream size : 25.5 MiB (0%)
Title : English-SDH-PGS
Language : English
Default : No
Forced : No

Text #6
ID : 10
Format : PGS
Muxing mode : zlib
Codec ID : S_HDMV/PGS
Codec ID/Info : Picture based subtitle format used on BDs/HD-DVDs
Duration : 1 h 54 min
Bit rate : 30.1 kb/s
Count of elements : 2447
Stream size : 24.6 MiB (0%)
Title : French-PGS
Language : French
Default : No
Forced : No

Text #7
ID : 11
Format : PGS
Muxing mode : zlib
Codec ID : S_HDMV/PGS
Codec ID/Info : Picture based subtitle format used on BDs/HD-DVDs
Duration : 1 h 56 min
Bit rate : 27.9 kb/s
Count of elements : 2447
Stream size : 23.2 MiB (0%)
Title : Spanish-PGS
Language : Spanish
Default : No
Forced : No

Text #8
ID : 12
Format : PGS
Muxing mode : zlib
Codec ID : S_HDMV/PGS
Codec ID/Info : Picture based subtitle format used on BDs/HD-DVDs
Duration : 2 h 1 min
Bit rate : 1 222 b/s
Count of elements : 156
Stream size : 1.06 MiB (0%)
Title : French-PGS
Language : French
Default : No
Forced : No

Menu
00:00:00.000 : :Chapter 1
00:09:18.599 : :Chapter 2
00:15:38.145 : :Chapter 3
00:19:59.448 : :Chapter 4
00:29:07.746 : :Chapter 5
00:33:28.131 : :Chapter 6
00:39:47.718 : :Chapter 7
00:47:17.125 : :Chapter 8
00:54:42.904 : :Chapter 9
01:01:44.200 : :Chapter 10
01:08:45.037 : :Chapter 11
01:16:33.005 : :Chapter 12
01:26:26.389 : :Chapter 13
01:33:02.660 : :Chapter 14
01:41:58.821 : :Chapter 15
01:50:53.688 : :Chapter 16





1 个附件 售价 大小 下载 时间

Air.Force.One.1997.2160p.BluRay.x265.10bit.SDR.DTS-HD.MA.TrueHD.7.1.Atmos-SWTYBLZ[btbtt.me].torrent 0 金币 125.13K 665 次 7天前

#1楼
发帖时间:2018-11-09 11:31:14   |   回复数:4
911degrees
隐世仙人♂
非常感谢,谢谢分享
7天前 #2楼
zipper
小有名气
整个90 年代是电影最好的年代
7天前 #3楼
liyouchai
超凡入圣№
谢谢楼主分享资源
6天前 #4楼
blue23
隐世仙人♂
感谢楼主分享
5天前 #5楼
游客组