aoloffline
版主

[更 早] [欧美] [动作] [BD-1080P] [ВТ下载]第一滴血3 1988.RE.1080p.BluRay.x264.DTS-SWTYBLZ 9.7GB

-->

Rambo.III.1988.REMASTERED.1080p.BluRay.x264.DTS-SWTYBLZ

◎译  名 第一滴血3 / 兰博3

◎片  名 Rambo III

◎年  代 1988

◎产  地 美国

◎类  别 动作 / 惊悚 / 冒险

◎语  言 英语 / 俄语

◎上映日期 1988-05-25(美国)

◎IMDb评分 5.8/10 from 105225 users

◎IMDb链接 http://www.imdb.com/title/tt0095956

◎豆瓣评分 7.5/10 from 21861 users

◎豆瓣链接 https://movie.douban.com/subject/1300399/

◎BT之家整理 http://www.btbtt.us/

◎片  长 102 分钟

◎导  演 Peter MacDonald

◎编  剧 David Morrell / Sylvester Stallone / Sheldon Lettich

◎主  演 Sylvester Stallone

      Richard Crenna

      Marc de Jonge

      Kurtwood Smith

      Spiros Focás

      Sasson Gabai





◎简  介  


  历经无数战火与生死考验,孔武有力的豪情勇士约翰·兰博(西尔维斯特·史泰龙 Sylvester Stallone 饰)放下手中的杀人武器,在泰国过起了平静的修行生活。这一日,特劳特曼上校(理查德·克里纳 Richard Crenna 饰)突然出现在他面前。此前不久,上校受命率部队前往阿富汗,协助当地的圣战勇士反抗苏联人的入侵。虽然照片中阿富汗平民饱受外敌侵略和蹂躏的情景触目惊心,但兰博还是拒绝了上校的邀请。某晚,特劳特曼的部队在执行任务途中遭到苏联军队的伏击,其本人也不幸沦为阶下囚。得知这一消息,兰博再也无法静观其变。浴血战士重披战甲,只身闯入充满凶险的阿富汗腹地,展开一场紧张纷呈的绝命营救……

本片获1989年金酸梅最差男主角奖。


Video
ID : 1
Format : AVC
Format/Info : Advanced Video Codec
Format profile : High@L4.1
Format settings : CABAC / 5 Ref Frames
Format settings, CABAC : Yes
Format settings, ReFrames : 5 frames
Codec ID : V_MPEG4/ISO/AVC
Duration : 1 h 41 min
Bit rate : 12.2 Mb/s
Width : 1 920 pixels
Height : 816 pixels
Display aspect ratio : 2.35:1
Frame rate mode : Constant
Frame rate : 24.000 FPS
Color space : YUV
Chroma subsampling : 4:2:0
Bit depth : 8 bits
Scan type : Progressive
Bits/(Pixel*Frame) : 0.325
Stream size : 8.66 GiB (89%)
Title : Rambo.III.1988.REMASTERED.1080p.BluRay.x264.DTS-SWTYBLZ
Writing library : x264 core 157 r2935 545de2f
Encoding settings : cabac=1 / ref=5 / deblock=1:-1:-1 / analyse=0x3:0x133 / me=umh / subme=10 / psy=1 / psy_rd=1.00:0.15 / mixed_ref=1 / me_range=48 / chroma_me=1 / trellis=2 / 8x8dct=1 / cqm=0 / deadzone=21,11 / fast_pskip=1 / chroma_qp_offset=-3 / threads=25 / lookahead_threads=4 / sliced_threads=0 / nr=0 / decimate=0 / interlaced=0 / bluray_compat=0 / constrained_intra=0 / bframes=8 / b_pyramid=2 / b_adapt=2 / b_bias=0 / direct=3 / weightb=1 / open_gop=0 / weightp=2 / keyint=250 / keyint_min=24 / scenecut=40 / intra_refresh=0 / rc_lookahead=60 / rc=crf / mbtree=1 / crf=21.0 / qcomp=0.60 / qpmin=0 / qpmax=69 / qpstep=4 / ip_ratio=1.40 / aq=1:1.00
Language : English
Default : Yes
Forced : No

Audio
ID : 2
Format : DTS
Format/Info : Digital Theater Systems
Codec ID : A_DTS
Duration : 1 h 41 min
Bit rate mode : Constant
Bit rate : 1 509 kb/s
Channel(s) : 6 channels
Channel layout : C L R Ls Rs LFE
Sampling rate : 48.0 kHz
Frame rate : 93.750 FPS (512 SPF)
Bit depth : 24 bits
Compression mode : Lossy
Stream size : 1.07 GiB (11%)
Title : Rambo.III.1988.REMASTERED.1080p.BluRay.x264.DTS-SWTYBLZ
Language : English
Default : Yes
Forced : No

Text
ID : 3
Format : UTF-8
Codec ID : S_TEXT/UTF8
Codec ID/Info : UTF-8 Plain Text
Duration : 1 h 28 min
Bit rate : 22 b/s
Count of elements : 460
Stream size : 14.8 KiB (0%)
Language : English
Default : Yes
Forced : No

Menu
00:00:00.000 : :Chapter 1
00:07:19.458 : :Chapter 2
00:14:30.375 : :Chapter 3
00:25:23.000 : :Chapter 4
00:30:14.250 : :Chapter 5
00:36:18.666 : :Chapter 6
00:48:47.166 : :Chapter 7
00:58:49.375 : :Chapter 8
01:09:51.458 : :Chapter 9
01:17:14.958 : :Chapter 10
01:26:29.500 : :Chapter 11
01:34:47.166 : :Chapter 12



1 个附件 售价 大小 下载 时间

Rambo.III.1988.REMASTERED.1080p.BluRay.x264.DTS-SWTYBLZ[btbtt.me].torrent 0 金币 97.86K 497 次 7天前

#1楼
发帖时间:2018-11-09 11:34:23   |   回复数:3
911degrees
隐世仙人♂
非常感谢,谢谢分享
7天前 #2楼
liyouchai
超凡入圣№
谢谢楼主分享资源
6天前 #3楼
blue23
隐世仙人♂
感谢楼主分享
5天前 #4楼
游客组