aoloffline
版主

[更 早] [欧美] [剧情] [WEB-1080P] [ВТ下载]激情姐妹花 Sister.My.Sister.1994.1080p.AMZN.WEBRip.DDP2.0.x264-SiGMA 8.8GB

-->

Sister.My.Sister.1994.1080p.AMZN.WEBRip.DDP2.0.x264-SiGMA


◎译  名 激情姐妹花

◎片  名 Sister My Sister

◎年  代 1994

◎产  地 英国

◎类  别 剧情

◎语  言 英语

◎上映日期 1994-12-15

◎IMDb评分 6.9/10 from 2840 users

◎IMDb链接 http://www.imdb.com/title/tt0111205

◎豆瓣评分 6.4/10 from 669 users

◎豆瓣链接 https://movie.douban.com/subject/1297542/

◎BT之家整理 http://www.btbtt.us/

◎片  长 104 分钟

◎导  演 Nancy Meckler (I)

◎编  剧 Wendy Kesselman

◎主  演 Joely Richardson

      Julie Walters

      Jodhi May

      Sophie Thursfield





◎简  介  


  影片改编自真实事件。故事发生在地处偏远的一处法国小镇之上,克里斯蒂安(朱莉·理查德森 Joely Richardson 饰)和莱尔(乔迪·梅 Jodhi May 饰)是情同手足的两姐妹,从小孤苦伶仃相依为命的生活让两人之间接下了深深的感情和羁绊。

长大后,为了谋求生计,两姐妹一起来到了当地的一户富裕人家做女佣,生活工作虽然辛苦,但只要两人能够在一起,日子过得也算是安稳平静。随着时间的推移,长久以来的寂寞生活令克里斯蒂安和莱尔的心中充满了空虚与激情,渐渐的,她们开始学会在彼此的身上寻找情感慰藉。一次工作中,莱尔无意里烫坏了女主人丹泽(朱丽·沃特斯 Julie Walters 饰)的婚纱,丹泽大发雷霆,就此点燃了悲剧的导火索。


Video
ID : 1
Format : AVC
Format/Info : Advanced Video Codec
Format profile : High@L4
Format settings : CABAC / 4 Ref Frames
Format settings, CABAC : Yes
Format settings, ReFrames : 4 frames
Codec ID : V_MPEG4/ISO/AVC
Duration : 1 h 29 min
Bit rate mode : Variable
Bit rate : 13.9 Mb/s
Maximum bit rate : 15.0 Mb/s
Width : 1 920 pixels
Height : 1 080 pixels
Display aspect ratio : 16:9
Frame rate mode : Constant
Frame rate : 24.000 FPS
Color space : YUV
Chroma subsampling : 4:2:0
Bit depth : 8 bits
Scan type : Progressive
Bits/(Pixel*Frame) : 0.278
Stream size : 8.68 GiB (98%)
Default : Yes
Forced : No
Color range : Limited
Color primaries : BT.709
Transfer characteristics : BT.709
Matrix coefficients : BT.709

Audio
ID : 2
Format : E-AC-3
Format/Info : Enhanced AC-3
Commercial name : Dolby Digital Plus
Codec ID : A_EAC3
Duration : 1 h 29 min
Bit rate mode : Constant
Bit rate : 224 kb/s
Channel(s) : 2 channels
Channel layout : L R
Sampling rate : 48.0 kHz
Frame rate : 31.250 FPS (1536 SPF)
Compression mode : Lossy
Stream size : 144 MiB (2%)
Language : English
Service kind : Complete Main
Default : Yes
Forced : No

Text
ID : 3
Format : UTF-8
Codec ID : S_TEXT/UTF8
Codec ID/Info : UTF-8 Plain Text
Duration : 1 h 27 min
Bit rate : 37 b/s
Count of elements : 1021
Stream size : 24.4 KiB (0%)
Title : English (SDH)
Language : English
Default : No
Forced : No



1 个附件 售价 大小 下载 时间

Sister.My.Sister.1994.1080p.AMZN.WEBRip.DDP2.0.x264-SiGMA[btbtt.me].torrent 0 金币 88.82K 1491 次 7天前

#1楼
发帖时间:2018-11-09 11:54:57   |   回复数:4
911degrees
隐世仙人♂
非常感谢,谢谢分享
7天前 #2楼
tanchoohoon
武林盟主
感谢楼主的无私分享
7天前 #3楼
liyouchai
超凡入圣№
谢谢楼主分享资源
6天前 #4楼
blue23
隐世仙人♂
感谢楼主分享
5天前 #5楼
游客组