呆呆狐狸
超级版主

[2016] [欧美] [打包] [完结] [BT下载][米洛·墨菲的法则/迈罗·墨菲定律/Milo 第一季][全35集打包][英语无字][MKV][1080P][片源]

-->

◎译  名 米洛·墨菲的法则 / 迈罗·墨菲定律

◎片  名 Milo Murphy's Law

◎年  代 2016

◎产  地 美国

◎类  别 动画

◎语  言 英语

◎上映日期 2016-10-03(美国)

◎IMDb评分 7.7/10 from 1124 users

◎IMDb链接 http://www.imdb.com/title/tt5439480

◎豆瓣评分 8.8/10 from 169 users

◎豆瓣链接 https://movie.douban.com/subject/26804581/

◎BT之家整理 http://www.btbtt.us/

◎集  数 35

◎片  长 22分钟

◎导  演 罗伯特·休斯 Robert Hughes

◎编  剧 杰夫·马尔什 Jeff 'Swampy' Marsh / 丹·波文迈尔 Dan Povenmire

◎主  演 帕梅拉·阿德龙 Pamela Adlon

      戴德里克·巴德 Diedrich Bader

      迪·布拉雷·贝克尔 Dee Bradley Baker

      塞布丽娜·卡彭特 Sabrina Carpenter

      萨拉·乔克 Sarah Chalke

      格雷格·西佩斯 Greg Cipes

      杰梅奈·克莱门特 Jemaine Clement

      杰夫·马尔什 Jeff 'Swampy' Marsh

      文森特·马特拉 Vincent Martella

      凯特 米库契 Kate Micucci

      麦肯兹·菲利浦斯 Mackenzie Phillips

      丹·波文迈尔 Dan Povenmire

      凯文·迈克尔·理查德森 Kevin Michael Richardson

      克里斯蒂安·史莱特 Christian Slater

      凡妮莎·威廉斯 Vanessa Williams

      阿尔·杨科维克 'Weird Al' Yankovic

      Chrissie Fit




◎简  介  


  迪士尼XD全新动画剧集《迈罗·墨菲定律》(Milo Murphy's Law)的主人公迈罗·墨菲,是著名的心理学概念“墨菲定律”中那个墨菲的后人。作为学校里小有名气的扫把星,迈罗走到哪儿哪儿就得出事儿,谁见了都躲之不及,但他自己的心理素质却好得不得了。这个活到今天实属不易的中学生,在好朋友梅丽莎和扎克的陪伴下,迈罗带领大家展开了每天不重样的生活大冒险。该片是《飞哥与小佛》主创丹·波文迈尔(Dan Povenmire)和杰夫·马什(Jeff "Swampy" Marsh)的新作,《俏姑娘看世界》主演萨布丽娜·卡朋特(Sabrina Carpenter)参与配音。


Video
ID : 1
Format : AVC
Format/Info : Advanced Video Codec
Format profile : High@L4
Format settings : CABAC / 4 Ref Frames
Format settings, CABAC : Yes
Format settings, ReFrames : 4 frames
Codec ID : V_MPEG4/ISO/AVC
Duration : 22 min 9 s
Bit rate mode : Variable
Bit rate : 3 973 kb/s
Maximum bit rate : 15.0 Mb/s
Width : 1 920 pixels
Height : 1 080 pixels
Display aspect ratio : 16:9
Frame rate mode : Constant
Frame rate : 23.976 (24000/1001) FPS
Color space : YUV
Chroma subsampling : 4:2:0
Bit depth : 8 bits
Scan type : Progressive
Bits/(Pixel*Frame) : 0.080
Stream size : 630 MiB (95%)
Default : Yes
Forced : No
Color range : Limited
Color primaries : BT.709
Transfer characteristics : BT.709
Matrix coefficients : BT.709

Audio
ID : 2
Format : E-AC-3
Format/Info : Enhanced AC-3
Commercial name : Dolby Digital Plus
Codec ID : A_EAC3
Duration : 22 min 9 s
Bit rate mode : Constant
Bit rate : 224 kb/s
Channel(s) : 2 channels
Channel layout : L R
Sampling rate : 48.0 kHz
Frame rate : 31.250 FPS (1536 SPF)
Compression mode : Lossy
Stream size : 35.5 MiB (5%)
Language : English
Service kind : Complete Main
Default : Yes
Forced : No

Text
ID : 3
Format : UTF-8
Codec ID : S_TEXT/UTF8
Codec ID/Info : UTF-8 Plain Text
Duration : 22 min 6 s
Bit rate : 92 b/s
Count of elements : 448
Stream size : 14.9 KiB (0%)
Language : English
Default : No
Forced : No




1 个附件 售价 大小 下载 时间

Milo.Murphys.Law.S01.1080p.WEB-DL.AAC2.0.H264-CtrlHD[btbtt.me].torrent 0 金币 72.93K 186 次 10天前

#1楼
发帖时间:2019-01-11 17:48:45   |   回复数:1
911degrees
隐世仙人♂
非常感谢,谢谢分享
10天前 #2楼
游客组